<?xml version="1.0" standalone="no"?>
<!DOCTYPE svg PUBLIC "-//W3C//DTD SVG 1.1//EN" "http://www.w3.org/Graphics/SVG/1.1/DTD/svg11.dtd" >
<svg xmlns="http://www.w3.org/2000/svg">
<defs>
  <font id="CoreUI-Icons-Solid" horiz-adv-x="5000">
    <font-face font-family="CoreUI-Icons-Solid"
      units-per-em="5000" ascent="5000"
      descent="0" />
    <missing-glyph horiz-adv-x="0" />
    <glyph glyph-name="cis-3d"
      unicode="&#xEA01;"
      horiz-adv-x="5000" d="M849.443359375 1684.2578125L2327.55859375 2519.7070312500005V4714.16015625L663.896484375 3753.65234375A333.0078125 333.0078125 0 0 1 497.8808593750001 3466.103515625V1533.8964843750005A329.1699218750001 329.1699218750001 0 0 1 501.2500000000001 1487.44140625zM4505.17578125 1486.9238281250005A329.1015625000001 329.1015625000001 0 0 1 4508.6328125 1533.8964843750005V3466.103515625A333.0078125 333.0078125 0 0 1 4342.6171875 3753.65234375L2679.12109375 4714.072265625V2519.04296875L4157.0703125 1683.681640625zM725.8691406249999 1210.56640625L2337.197265625 280.25390625A332.890625 332.890625 0 0 1 2669.228515625 280.25390625L4280.107421875 1210.2929687499995L3924.853515624999 1411.1328125L2502.75390625 2214.90234375L1081.1621093749998 1411.3867187499995z" />
    <glyph glyph-name="cis-3d-rotate"
      unicode="&#xEA02;"
      horiz-adv-x="5000" d="M2308.759765625 3377.51953125V3783.466796875L1359.638671875 3235.48828125A254.5996093750001 254.5996093750001 0 0 1 1232.685546875 3015.60546875V1936.7578125L1584.248046875 2135.4687500000005L2308.759765625 2544.921875zM2621.2597656249995 3778.740234375V2544.5703125L3337.587890625 2139.6875L3689.150390625 1940.9765624999995V3015.625A254.619140625 254.619140625 0 0 1 3562.197265625 3235.517578125zM2460.9375 1074.21875A253.80859375 253.80859375 0 0 1 2587.890625 1108.134765625L3547.392578125 1662.109375L3192.099609375 1862.9296875L2464.6484375 2274.0625000000005L1733.3984375 1860.8203125L1378.10546875 1660L2333.984375 1108.14453125A253.90625 253.90625 0 0 1 2460.9375 1074.21875zM2499.873046875 503.603515625V937.5L1409.2578125 156.25H2493.369140625V151.962890625C3800.009765625 151.962890625 4863.10546875 1209.228515625 4863.10546875 2508.7890625H4511.54296875C4511.54296875 1405.2734375 3609.716796875 507.109375 2499.873046875 503.603515625zM2500 4485.13671875V4062.5L3593.75 4843.75H2500V4836.708984375A2336.9824218749995 2336.9824218749995 0 0 1 170.05859375 2499.6582031249995H521.62109375C521.62109375 3592.109375 1408.45703125 4481.240234375 2500 4485.13671875z" />
    <glyph glyph-name="cis-4k"
      unicode="&#xEA03;"
      horiz-adv-x="5000" d="M4531.25 4843.75H468.75A312.5 312.5 0 0 1 156.25 4531.25V468.75A312.5 312.5 0 0 1 468.75 156.25H4531.25A312.5 312.5 0 0 1 4843.75 468.75V4531.25A312.5 312.5 0 0 1 4531.25 4843.75zM2500 1953.125H2109.375V1328.125H1640.625V1953.125H678.515625L850.3906250000001 3671.875H1321.4843750000002L1196.4843750000002 2421.875H1640.625V3203.125H2109.375V2421.875H2500zM4363.603515625 1328.125H3839.521484374999L3370.7714843749995 2265.625H3203.125V1328.125H2734.375V3671.875H3203.125V2734.375H3370.7714843750005L3839.521484375001 3671.875H4363.603515625L3777.666015625001 2500z" />
    <glyph glyph-name="cis-accessibility"
      unicode="&#xEA04;"
      horiz-adv-x="5000" d="M2031.25 4296.875A468.7500000000001 468.7500000000001 0 0 1 2968.75 4296.875A468.7500000000001 468.7500000000001 0 0 1 2031.25 4296.875M4218.75 3046.875L4218.75 3593.75L781.25 3593.75L781.25 3046.875L2031.25 3046.875L2031.25 2057.333984375L1245.83984375 156.25L1821.103515625 156.25L2413.5546875 1562.5L2487.626953125 1562.5L2959.833984375 156.25L3558.06640625 156.25L2890.625 2081.5917968749995L2890.625 3046.875L4218.75 3046.875z" />
    <glyph glyph-name="cis-accessible"
      unicode="&#xEA05;"
      horiz-adv-x="5000" d="M3787.343749999999 4315.546875A371.953125 371.953125 0 0 1 4531.25 4315.546875A371.953125 371.953125 0 0 1 3787.343749999999 4315.546875M1962.8125 551.03515625A1095.625 1095.625 0 0 0 1076.3671875 2291.40625L742.236328125 2625.537109375A1557.4121093750002 1557.4121093750002 0 0 1 397.822265625 1647.275390625C397.822265625 784.3359375 1099.873046875 82.28515625 1962.8125 82.28515625A1557.40234375 1557.40234375 0 0 1 2941.0839843749995 426.69921875L2606.953125 760.830078125A1090.3125 1090.3125 0 0 0 1962.8125 551.03515625zM4019.130859375001 2819.619140625H3215.8203125L4026.23046875 3630.0390625L2907.041015625 4779.58984375A274.47265625 274.47265625 0 0 1 2522.7832031249995 4786.904296875L1791.6113281249995 4091.591796875L2114.638671875 3751.953125L2706.0546875 4314.267578125L3150.087890625 3858.7109375L2431.8164062500005 3140.439453125A1563.349609375 1563.349609375 0 0 1 991.50390625 2873.45703125L1325.9472656249998 2539.0625A1095.703125 1095.703125 0 0 0 2854.560546875 1010.439453125L3188.994140625 676.005859375A1562.099609375 1562.099609375 0 0 1 3360.4296875 2350.908203125H3823.818359375001V1058.18359375H4292.568359375V2546.181640625A273.740234375 273.740234375 0 0 1 4019.130859375001 2819.619140625z" />
    <glyph glyph-name="cis-account-logout"
      unicode="&#xEA06;"
      horiz-adv-x="5000" d="M3437.5 2031.25L3437.5 2034.755859375L3437.5 3041.025390625L3437.5 3046.875L1718.75 3041.025390625L1718.75 3906.25L136.689453125 2531.23046875L1718.75 1250L1718.75 2034.755859375L3437.5 2031.25zM4628.90625 4843.75H2402.34375C2281.875 4843.75 2187.5 4740.80078125 2187.5 4609.375V3437.5H3828.125V1640.625H2187.5V390.625C2187.5 259.19921875 2281.875 156.25 2402.34375 156.25H4628.90625C4749.375 156.25 4843.75 259.19921875 4843.75 390.625V4609.375C4843.75 4740.80078125 4749.375 4843.75 4628.90625 4843.75z" />
    <glyph glyph-name="cis-action-redo"
      unicode="&#xEA07;"
      horiz-adv-x="5000" d="M4466.533203125 2252.216796875L3593.75 1379.443359375V3125C3593.75 4072.724609375 2822.7246093750005 4843.75 1875 4843.75S156.25 4072.724609375 156.25 3125V1875H781.25V3125A1093.75 1093.75 0 0 0 2968.75 3125V1376.4941406249995L2093.017578125 2252.2167968749995L1651.07421875 1810.283203125L3279.775390625 181.58203125L4908.466796875 1810.283203125z" />
    <glyph glyph-name="cis-action-undo"
      unicode="&#xEA08;"
      horiz-adv-x="5000" d="M3125 4843.75C2177.275390625 4843.75 1406.25 4072.724609375 1406.25 3125V1379.443359375L533.466796875 2252.216796875L91.533203125 1810.283203125L1720.224609375 181.58203125L3348.92578125 1810.283203125L2906.982421875 2252.216796875L2031.25 1376.4941406249995V3125A1093.75 1093.75 0 0 0 4218.75 3125V1875H4843.75V3125C4843.75 4072.724609375 4072.724609375001 4843.75 3125 4843.75z" />
    <glyph glyph-name="cis-address-book"
      unicode="&#xEA09;"
      horiz-adv-x="5000" d="M3984.375 4453.125A156.25 156.25 0 0 1 3828.125 4609.375H625A156.25 156.25 0 0 1 468.75 4453.125V546.875A156.25 156.25 0 0 1 625 390.625H3828.125A156.25 156.25 0 0 1 3984.375 546.875V1015.625H4687.5V1484.375H3984.375V2265.625H4687.5V2734.375H3984.375V3515.625H4687.5V3984.375H3984.375zM3027.34375 1328.125H1328.125V1678.427734375A323.662109375 323.662109375 0 0 0 1475.3906250000002 1949.794921875L1849.8046875000005 2193.1640625L1692.24609375 2622.7636718749995V3108.26171875A485.4882812499999 485.4882812499999 0 0 0 2177.734375 3593.75H2177.734375A485.4882812499999 485.4882812499999 0 0 0 2663.22265625 3108.26171875V2622.763671875L2490.78125 2202.8417968750005L2880.0781249999995 1949.7949218750005A323.662109375 323.662109375 0 0 0 3027.34375 1678.427734375z" />
    <glyph glyph-name="cis-address-card"
      unicode="&#xEA0A;"
      horiz-adv-x="5000" d="M4765.625 4375H234.375A78.125 78.125 0 0 1 156.25 4296.875V649.0625A78.125 78.125 0 0 1 234.375 570.9375H4765.625A78.125 78.125 0 0 1 4843.75 649.0625V4296.875A78.125 78.125 0 0 1 4765.625 4375zM2421.875 1379.2187500000005H722.65625V1729.4921875A323.662109375 323.662109375 0 0 0 869.921875 2000.8593750000005L1244.3359375 2244.2285156250005L1086.77734375 2673.828125V3159.35546875A485.4882812499999 485.4882812499999 0 0 0 1572.265625 3644.84375H1572.265625A485.4882812499999 485.4882812499999 0 0 0 2057.75390625 3159.35546875V2673.828125L1885.3124999999995 2253.90625L2274.609375 2000.8593750000005A323.662109375 323.662109375 0 0 0 2421.875 1729.4921875zM4296.875 2265.625H2812.5V2734.375H4296.875zM4296.875 3125H2812.5V3593.75H4296.875z" />
    <glyph glyph-name="cis-airplane-mode"
      unicode="&#xEA0B;"
      horiz-adv-x="5000" d="M2968.75 4062.5A873.408203125 873.408203125 0 0 1 2654.4921875 4733.45703125H2654.4921875A241.318359375 241.318359375 0 0 1 2345.5078125 4733.45703125H2345.5078125A873.408203125 873.408203125 0 0 1 2031.25 4062.5V3173.076171875L234.375 2343.75L312.5 1875L2031.25 2081.25V2031.25L2126.6796875 933.759765625L1406.25 625V234.375H3593.75V625L2873.3203125 933.759765625L2968.75 2031.25V2081.25L4687.5 1875L4765.625 2343.75L2968.75 3173.076171875z" />
    <glyph glyph-name="cis-airplane-mode-off"
      unicode="&#xEA0C;"
      horiz-adv-x="5000" d="M3091.484375 2699.21875L3810.488281249999 1980.21484375L4687.5 1875L4765.625 2343.75L2968.75 3173.076171875V4062.5A873.408203125 873.408203125 0 0 1 2654.4921875 4733.45703125H2654.4921875A241.318359375 241.318359375 0 0 1 2345.5078125 4733.45703125H2345.5078125A873.408203125 873.408203125 0 0 1 2031.25 4062.5V3759.482421875L3091.484375 2699.21875zM4843.75 448.984375L3244.580078125 2048.154296875L3245.5078124999995 2048.037109375L2031.25 3262.294921875L2031.25 3261.484375L448.984375 4843.75L156.25 4843.75L156.25 4556.42578125L1694.853515625 3017.822265625L234.375 2343.75L312.5 1875L2031.25 2081.25L2031.25 2031.25L2126.6796875 933.759765625L1406.25 625L1406.25 234.375L3593.75 234.375L3593.75 625L2873.3203125 933.759765625L2945.76171875 1766.9140625L4556.42578125 156.25L4843.75 156.25L4843.75 448.984375z" />
    <glyph glyph-name="cis-airplay"
      unicode="&#xEA0D;"
      horiz-adv-x="5000" d="M4687.5 4497.0703125H312.5A156.25 156.25 0 0 1 156.25 4340.8203125V1215.8203125A156.25 156.25 0 0 1 312.5 1059.5703125H1298.828125L2222.509765625 2247.0703125L2500 2603.8671875L2777.5 2247.0703125L3701.171875 1059.5703125H4687.5A156.25 156.25 0 0 1 4843.75 1215.8203125V4340.8203125A156.25 156.25 0 0 1 4687.5 4497.0703125zM1041.591796875 156.25L3958.408203125 156.25L2500 2031.25L1041.591796875 156.25z" />
    <glyph glyph-name="cis-alarm"
      unicode="&#xEA0E;"
      horiz-adv-x="5000" d="M2500 4218.75C1378.173828125 4218.75 468.75 3309.326171875 468.75 2187.5S1378.173828125 156.25 2500 156.25S4531.25 1065.673828125 4531.25 2187.5S3621.826171875 4218.75 2500 4218.75zM3153.1347656249995 1324.21875L2294.921875 2010.810546875V3281.25H2705.078125V2207.939453125L3409.3652343750005 1644.53125zM177.3425636597504 3941.476377851857L1505.4591773212476 4878.984594331536L1775.7821467090891 4496.032828803109L447.665533047592 3558.524612323429L177.3425636597504 3941.476377851857zM3224.200611977609 4496.033048731373L3494.5168975550937 4878.989532227333L4822.649873619449 3941.5044958982025L4552.3335880419645 3558.5480124022424L3224.200611977609 4496.033048731373z" />
    <glyph glyph-name="cis-alarm-add"
      unicode="&#xEA0F;"
      horiz-adv-x="5000" d="M2500 4218.75C1378.173828125 4218.75 468.75 3309.326171875 468.75 2187.5S1378.173828125 156.25 2500 156.25S4531.25 1065.673828125 4531.25 2187.5S3621.826171875 4218.75 2500 4218.75zM3437.5 1982.421875H2705.078125V1250H2294.921875V1982.421875H1562.5V2392.578125H2294.921875V3125H2705.078125V2392.578125H3437.5zM177.3425636597504 3941.476377851857L1505.4591773212476 4878.984594331536L1775.7821467090891 4496.032828803109L447.665533047592 3558.524612323429L177.3425636597504 3941.476377851857zM3224.200611977609 4496.033048731373L3494.5168975550937 4878.989532227333L4822.649873619449 3941.5044958982025L4552.3335880419645 3558.5480124022424L3224.200611977609 4496.033048731373z" />
    <glyph glyph-name="cis-alarm-off"
      unicode="&#xEA10;"
      horiz-adv-x="5000" d="M4207.12890625 1086.4160156250005L448.974609375 4843.75H156.25V4556.42578125L525.46875 4187.216796875L177.34375 3941.474609375L447.6562500000001 3558.525390625L861.81640625 3850.869140625L1076.42578125 3636.25A2024.9511718749995 2024.9511718749995 0 0 1 468.75 2187.5C468.75 1065.673828125 1378.173828125 156.25 2500 156.25A2024.9609374999995 2024.9609374999995 0 0 1 3948.749999999999 763.92578125L4556.435546875 156.25H4843.75V449.794921875zM3091.484375 2699.21875H3091.484375L4378.0859375 1412.6464843749995A2025.1464843749995 2025.1464843749995 0 0 1 4531.25 2187.5C4531.25 3309.326171875 3621.826171875 4218.75 2500 4218.75A2025.1464843749995 2025.1464843749995 0 0 1 1725.146484375 4065.5859375zM1775.78125 4496.025390625L1505.46875 4878.974609375L1157.431640625 4633.30078125L1493.779296875 4296.953125L1775.78125 4496.025390625zM3224.226121083853 4496.007106854545L3494.549090471695 4878.958872382973L4822.665704133192 3941.450655903293L4552.34273474535 3558.498890374865L3224.226121083853 4496.007106854545z" />
    <glyph glyph-name="cis-alarm-on"
      unicode="&#xEA11;"
      horiz-adv-x="5000" d="M2500 4218.75C1378.173828125 4218.75 468.75 3309.326171875 468.75 2187.5S1378.173828125 156.25 2500 156.25S4531.25 1065.673828125 4531.25 2187.5S3621.826171875 4218.75 2500 4218.75zM2319.8046875 1407.71484375L1533.203125 2194.3359375L1823.2421875 2484.375L2319.82421875 1987.802734375L3291.015625 2958.984375L3581.0546875 2668.9453125zM177.3425636597504 3941.476377851857L1505.4591773212476 4878.984594331536L1775.7821467090891 4496.032828803109L447.665533047592 3558.524612323429L177.3425636597504 3941.476377851857zM3224.200611977609 4496.033048731373L3494.5168975550937 4878.989532227333L4822.649873619449 3941.5044958982025L4552.3335880419645 3558.5480124022424L3224.200611977609 4496.033048731373z" />
    <glyph glyph-name="cis-alarm-snooze"
      unicode="&#xEA12;"
      horiz-adv-x="5000" d="M2500 4218.75C1378.173828125 4218.75 468.75 3309.326171875 468.75 2187.5S1378.173828125 156.25 2500 156.25S4531.25 1065.673828125 4531.25 2187.5S3621.826171875 4218.75 2500 4218.75zM3281.25 1279.296875H1748.046875V1772.03125L2736.904296875 2685.546875H1796.875V3095.703125H3251.953125V2602.96875L2263.095703125 1689.453125H3281.25zM177.3425636597504 3941.476377851857L1505.4591773212476 4878.984594331536L1775.787778437618 4496.024850641326L447.6711647761209 3558.5166341616473L177.3425636597503 3941.476377851857zM3224.209585497969 4496.039019501672L3494.53818661434 4878.998763191881L4822.654800275837 3941.4905467122016L4552.326199159466 3558.530803021992L3224.209585497969 4496.039019501672z" />
    <glyph glyph-name="cis-album"
      unicode="&#xEA13;"
      horiz-adv-x="5000" d="M2500 4843.75C1205.5859375 4843.75 156.25 3794.4140625 156.25 2500S1205.5859375 156.25 2500 156.25S4843.75 1205.5859375 4843.75 2500S3794.4140625 4843.75 2500 4843.75zM1390.439453125 3331.93359375L1109.375 3543.076171875A1753.740234375 1753.740234375 0 0 0 1710.1757812500002 4048.828125A1719.892578125 1719.892578125 0 0 0 2500 4238.28125V3886.71875A1376.376953125 1376.376953125 0 0 1 1390.439453125 3331.93359375zM2500 1640.625A859.375 859.375 0 1 0 3359.375 2500A859.375 859.375 0 0 0 2500 1640.625zM2265.625 2734.375H2734.375V2265.625H2265.625V2734.375z" />
    <glyph glyph-name="cis-align-center"
      unicode="&#xEA14;"
      horiz-adv-x="5000" d="M156.25 4375H4843.75V3750H156.25V4375zM937.5 3333.330078125H4062.5V2708.330078125H937.5V3333.330078125zM156.25 2291.6699218749995H4843.75V1666.6699218749995H156.25V2291.6699218749995zM937.5 1250H4062.5V625H937.5V1250z" />
    <glyph glyph-name="cis-align-left"
      unicode="&#xEA15;"
      horiz-adv-x="5000" d="M156.25 4375H4843.75V3750H156.25V4375zM156.25 3333.330078125H3281.25V2708.330078125H156.25V3333.330078125zM156.25 2291.6699218749995H4843.75V1666.6699218749995H156.25V2291.6699218749995zM156.25 1250H3281.25V625H156.25V1250z" />
    <glyph glyph-name="cis-align-right"
      unicode="&#xEA16;"
      horiz-adv-x="5000" d="M156.25 4375H4843.75V3750H156.25V4375zM1718.75 3333.330078125H4843.75V2708.330078125H1718.75V3333.330078125zM156.25 2291.6699218749995H4843.75V1666.6699218749995H156.25V2291.6699218749995zM1718.75 1250H4843.75V625H1718.75V1250z" />
    <glyph glyph-name="cis-american-football"
      unicode="&#xEA17;"
      horiz-adv-x="5000" d="M481.4453125 462.392578125C973.388671875 196.15234375 1572.5781249999998 136.34765625 2172.71484375 271.6015625L290.693359375 2153.6621093750005C155.4296875 1553.515625 215.234375 954.3359375 481.4453125 462.392578125zM4560.283203125 4541.201171875C4077.607421875001 4802.431640625 3491.6699218750005 4865.009765625 2902.900390625 4739.51171875L4769.16015625 2935.458984375C4880.302734375 3506.767578125 4813.876953125 4072.63671875 4560.283203125 4541.201171875zM1220.986328125 3801.689453125C859.208984375 3439.921875 593.18359375 3025.341796875 426.7578125 2597.65625L2616.7285156249995 407.67578125C3044.462890625 574.091796875 3459.00390625 840.126953125 3820.830078125 1201.8945312499995C4204.921875 1585.9960937499995 4481.19140625 2029.6093749999995 4644.794921874999 2485.263671875L2450.927734375 4605.947265625C2014.08203125 4440.283203125 1590.05859375 4170.76171875 1220.986328125 3801.689453125zM2812.5 3061.09375L3078.828125 3327.421875L3327.421875 3078.828125L3061.09375 2812.5L3327.421875 2546.171875L3078.828125 2297.578125L2812.5 2563.90625L2592.34375 2343.75L2858.671875 2077.421875L2610.078125 1828.828125L2343.75 2095.15625L2077.421875 1828.828125L1828.8281250000005 2077.421875L2095.15625 2343.75L1828.8281250000005 2610.078125L2077.421875 2858.671875L2343.75 2592.34375L2563.90625 2812.5L2297.578125 3078.828125L2546.171875 3327.421875z" />
    <glyph glyph-name="cis-animal"
      unicode="&#xEA18;"
      horiz-adv-x="5000" d="M3610.234375 1820.0390625A1173.369140625 1173.369140625 0 0 1 2486.328125 2656.25H2486.328125A1173.37890625 1173.37890625 0 0 1 1373.1640625 1853.92578125L1133.57421875 1135.1757812499995C998.69140625 730.46875 1299.921875 312.5 1726.5625 312.5H3222.4804687500005A625 625 0 0 1 3821.113281250001 1117.08984375zM267.9613541154376 2494.710605716834A568.6816406250001 699.912109375 30.000000000000014 0 1 1252.9468490095624 3063.392246341834A568.6816406250001 699.912109375 30.000000000000014 0 1 267.9613541154376 2494.710605716834M3889.580078124999 2172.919524519232A699.912109375 568.6816406249999 60.00000000000001 0 1 4589.4921875 3385.2028587894365A699.912109375 568.6816406249999 60.00000000000001 0 1 3889.580078124999 2172.919524519232M1232.7350166767555 3715.8204397360823A568.6816406249999 699.912109375 12.264000000000015 0 1 2344.1427949276576 3957.415108508308A568.6816406249999 699.912109375 12.264000000000015 0 1 1232.7350166767555 3715.8204397360823M3062.8896555168535 3152.6717502651927A699.912109375 568.681640625 77.73599999999998 0 1 3360.235344483147 4520.550905984807A699.912109375 568.681640625 77.73599999999998 0 1 3062.8896555168535 3152.6717502651927" />
    <glyph glyph-name="cis-aperture"
      unicode="&#xEA19;"
      horiz-adv-x="5000" d="M4185.9375 3593.623046875H4594.912109375A2363.466796875 2363.466796875 0 0 1 4172.9296875 4165.888671875A2339.541015625 2339.541015625 0 0 1 2951.0644531249995 4814.326171875L2761.982421875 4488.349609375L2243.0078125 3593.623046875zM3590.48828125 2191.25L2627.8320312499995 498.5546875L2426.6015625 144.716796875C2453.232421875 143.837890625 2479.90234375 143.232421875 2506.6796874999995 143.232421875A2341.025390625 2341.025390625 0 0 1 4172.9296875 833.408203125Q4237.939453125 898.41796875 4297.1484375 967.5390625L4108.125 1294.8730468750005zM1426.376953125 2808.544921875L2408.69140625 4502.109375L2612.607421875 4853.671875C2577.451171875 4855.21484375 2542.119140625 4856.11328125 2506.6796875000005 4856.11328125A2340.99609375 2340.99609375 0 0 1 840.4394531250001 4165.908203125Q777.744140625 4103.212890625 720.3808593750001 4036.73828125L908.75 3708.984375zM661.1328125 1716.630859375H1693.57421875L720.44921875 3409.55078125L516.97265625 3763.53515625A2366.77734375 2366.77734375 0 0 1 282.9785156250001 1716.66015625zM4352.94921875 3281.123046875H3321.97265625L4295.60546875 1595.15625L4500 1241.2109375A2367.1191406250005 2367.1191406250005 0 0 1 4730.966796875 3281.083984375zM419.2578125 1404.130859375A2363.779296875 2363.779296875 0 0 1 840.4394531250001 833.408203125A2339.19921875 2339.19921875 0 0 1 2087.3437500000005 180.322265625L2273.8671875 508.3789062500009L2783.291015625 1404.130859375H419.2578125z" />
    <glyph glyph-name="cis-apple"
      unicode="&#xEA1A;"
      horiz-adv-x="5000" d="M3181.9628906250005 4681.142578125Q3223.6328125 4696.6015625 3265.771484375 4708.701171875Q3223.6328125 4696.591796875 3181.9628906250005 4681.142578125zM4418.115234375 2861.552734375C4312.041015625 3133.41796875 4141.69921875 3342.79296875 3925.517578125 3467.021484375A956.9238281250002 956.9238281250002 0 0 1 3814.453125 3521.640625A1516.4453124999998 1516.4453124999998 0 0 0 3619.66796875 3258.33984375C3612.451171875 3250.52734375 3605.195312499999 3242.71484375 3597.802734375 3235.0390625A1514.9121093750002 1514.9121093750002 0 0 0 3099.755859375 2890.966796875A1527.98828125 1527.98828125 0 0 0 2812.5 2799.892578125V3161.81640625C2815.673828125 3162.6953125 3203.125 3281.25 3344.013671875 3478.369140625C3355.99609375 3495.13671875 3372.1289062500005 3508.447265625 3385.5566406250005 3523.974609375Q3409.9707031250005 3552.158203125 3432.3632812500005 3581.73828125Q3436.6210937500005 3587.36328125 3440.8300781250005 3593.037109375L3441.4648437500005 3593.916015625Q3459.042968750001 3617.71484375 3475.3906250000005 3642.333984375Q3491.083984375001 3665.9765625 3505.5859375000005 3690.3125Q3520.9277343750005 3716.015625 3534.8828125000005 3742.4609375Q3541.2695312500005 3754.53125 3547.3730468750005 3766.73828125C3557.8613281250005 3787.71484375 3567.802734375 3808.96484375 3577.0214843750005 3830.52734375Q3588.0761718750005 3856.396484375 3597.9101562500005 3882.763671875Q3617.539062500001 3935.498046875 3632.089843750001 3990C3635.068359375001 4001.142578125 3637.822265625001 4012.353515625 3640.468750000001 4023.59375C3644.287109375001 4039.794921875 3647.822265625001 4056.07421875 3650.957031250001 4072.421875Q3661.562500000001 4127.880859375 3666.835937500001 4184.423828125Q3668.134765625 4198.544921875 3669.111328125001 4212.744140625Q3671.064453125001 4241.064453125 3671.601562500001 4269.58984375Q3671.884765625001 4283.828125 3671.816406250001 4298.115234375Q3671.669921875001 4326.66015625 3670.117187500001 4355.322265625Q3669.345703125001 4369.6484375 3668.212890625001 4383.984375Q3665.947265625001 4412.65625 3662.246093750001 4441.34765625A1166.38671875 1166.38671875 0 0 1 3626.806640625001 4612.9296875Q3621.728515625001 4630.712890625 3616.064453125001 4648.41796875Q3599.0429687500005 4701.533203125 3576.630859375 4753.88671875L3576.513671875 4754.140625Q3548.3203125 4753.84765625 3520.01953125 4752.1875A1165.48828125 1165.48828125 0 0 1 3265.7421875 4708.69140625Q3223.642578125 4696.58203125 3181.93359375 4681.1328125Q3168.0468749999995 4675.9765625 3154.208984375 4670.44921875T3126.6015625 4659.0234375A1187.978515625 1187.978515625 0 0 1 3018.798828125 4606.201171875Q3005.810546875 4599.013671875 2993.0566406249995 4591.50390625Q2961.2011718749995 4572.75390625 2930.869140625 4552.255859375T2871.826171875 4509.58984375Q2848.857421875 4491.875 2826.9042968749995 4473.14453125T2784.1796875 4434.736328125Q2763.3203125 4415.048828125 2743.5156250000005 4394.453125Q2718.7890625000005 4368.7109375 2695.7617187500005 4341.62109375T2651.4941406250005 4286.2109375C2644.1015625000005 4276.3671875 2636.9335937500005 4266.3671875 2629.8632812500005 4256.298828125Q2620.9863281250005 4243.662109375 2612.4511718750005 4230.791015625Q2594.4726562500005 4203.701171875 2578.0175781250005 4175.7421875T2546.7187500000005 4118.974609375Q2540.2734375000005 4106.46484375 2534.1308593750005 4093.798828125C2527.197265625001 4079.501953125 2520.6152343750005 4065.048828125 2514.2578125000005 4050.48828125Q2510.2148437500005 4041.201171875 2506.3281250000005 4031.845703125A1180.791015625 1180.791015625 0 0 1 2465.21484375 3916.552734375Q2463.3984375 3910.439453125 2461.6308593750005 3904.31640625Q2455.4882812500005 3882.958984375 2450.166015625 3861.34765625C2449.1894531250005 3857.44140625 2448.2128906250005 3853.466796875 2447.314453125 3849.521484375A1173.671875 1173.671875 0 0 1 2420.9472656250005 3688.671875Q2417.0410156250005 3646.748046874999 2416.2011718750005 3604.4140625Q2415.9082031250005 3589.765625 2415.9667968750005 3575.009765625Q2416.0351562500005 3560.7421875 2416.4648437500005 3546.42578125C2416.7675781250005 3536.162109375 2421.3476562500005 3369.66796875 2421.904296875 3359.365234375C2421.904296875 3359.365234375 1905.595703125 3566.8359375 1827.7148437500005 3579.208984375C1584.130859375 3617.900390625 1360.810546875 3580.185546875 1163.9648437500002 3467.041015625C947.7734375000002 3342.79296875 777.4316406250001 3133.408203125 671.3671875000002 2861.572265625C574.9414062500001 2614.43359375 538.4765625000001 2326.2500000000005 568.6914062500002 2050.1074218750005C667.7343750000002 1145.0195312500005 955.9863281250002 536.162109375 1402.2949218750002 289.365234375A975.7812500000002 975.7812500000002 0 0 1 1881.7871093750005 166.865234375C2073.0468750000005 166.865234375 2278.5546875 217.59765625 2496.77734375 318.9746093750009H2592.7734375C3006.77734375 126.6601562500009 3374.853515625 116.6406250000009 3687.216796875001 289.3554687500009C4133.505859375 536.1425781250009 4421.796875 1145.0000000000005 4520.83984375 2050.0976562500005C4551.005859375 2326.23046875 4514.541015625 2614.4140625 4418.115234375 2861.552734375z" />
    <glyph glyph-name="cis-applications"
      unicode="&#xEA1B;"
      horiz-adv-x="5000" d="M234.375 4062.5A625 625 0 0 1 1484.375 4062.5A625 625 0 0 1 234.375 4062.5M1875 4062.5A625 625 0 0 1 3125 4062.5A625 625 0 0 1 1875 4062.5M3515.625 4062.5A625 625 0 0 1 4765.625 4062.5A625 625 0 0 1 3515.625 4062.5M234.375 2500A625 625 0 0 1 1484.375 2500A625 625 0 0 1 234.375 2500M1875 2500A625 625 0 0 1 3125 2500A625 625 0 0 1 1875 2500M3515.625 2500A625 625 0 0 1 4765.625 2500A625 625 0 0 1 3515.625 2500M234.375 937.5A625 625 0 0 1 1484.375 937.5A625 625 0 0 1 234.375 937.5M1875 937.5A625 625 0 0 1 3125 937.5A625 625 0 0 1 1875 937.5M3515.625 937.5A625 625 0 0 1 4765.625 937.5A625 625 0 0 1 3515.625 937.5" />
    <glyph glyph-name="cis-applications-settings"
      unicode="&#xEA1C;"
      horiz-adv-x="5000" d="M234.375 4062.5A625 625 0 0 1 1484.375 4062.5A625 625 0 0 1 234.375 4062.5M1875 4062.5A625 625 0 0 1 3125 4062.5A625 625 0 0 1 1875 4062.5M3515.625 4062.5A625 625 0 0 1 4765.625 4062.5A625 625 0 0 1 3515.625 4062.5M234.375 2500A625 625 0 0 1 1484.375 2500A625 625 0 0 1 234.375 2500M1875 2500A625 625 0 0 1 3125 2500A625 625 0 0 1 1875 2500M3515.625 2500A625 625 0 0 1 4765.625 2500A625 625 0 0 1 3515.625 2500M3515.625 937.5A625 625 0 0 1 4765.625 937.5A625 625 0 0 1 3515.625 937.5M625 1171.875H625A312.5 312.5 0 0 1 312.5 859.375H312.5A312.5 312.5 0 0 1 625 546.875H625A312.5 312.5 0 0 1 937.5 859.375H937.5A312.5 312.5 0 0 1 625 1171.875zM1562.5 1171.875H1562.5A312.5 312.5 0 0 1 1250 859.375H1250A312.5 312.5 0 0 1 1562.5 546.875H1562.5A312.5 312.5 0 0 1 1875 859.375H1875A312.5 312.5 0 0 1 1562.5 1171.875zM2500 1171.875H2500A312.5 312.5 0 0 1 2187.5 859.375H2187.5A312.5 312.5 0 0 1 2500 546.875H2500A312.5 312.5 0 0 1 2812.5 859.375H2812.5A312.5 312.5 0 0 1 2500 1171.875z" />
    <glyph glyph-name="cis-apps"
      unicode="&#xEA1D;"
      horiz-adv-x="5000" d="M234.375 4062.5A625 625 0 0 1 1484.375 4062.5A625 625 0 0 1 234.375 4062.5M1875 4062.5A625 625 0 0 1 3125 4062.5A625 625 0 0 1 1875 4062.5M3515.625 4062.5A625 625 0 0 1 4765.625 4062.5A625 625 0 0 1 3515.625 4062.5M234.375 2500A625 625 0 0 1 1484.375 2500A625 625 0 0 1 234.375 2500M1875 2500A625 625 0 0 1 3125 2500A625 625 0 0 1 1875 2500M3515.625 2500A625 625 0 0 1 4765.625 2500A625 625 0 0 1 3515.625 2500M234.375 937.5A625 625 0 0 1 1484.375 937.5A625 625 0 0 1 234.375 937.5M1875 937.5A625 625 0 0 1 3125 937.5A625 625 0 0 1 1875 937.5M3515.625 937.5A625 625 0 0 1 4765.625 937.5A625 625 0 0 1 3515.625 937.5" />
    <glyph glyph-name="cis-apps-settings"
      unicode="&#xEA1E;"
      horiz-adv-x="5000" d="M234.375 4062.5A625 625 0 0 1 1484.375 4062.5A625 625 0 0 1 234.375 4062.5M1875 4062.5A625 625 0 0 1 3125 4062.5A625 625 0 0 1 1875 4062.5M3515.625 4062.5A625 625 0 0 1 4765.625 4062.5A625 625 0 0 1 3515.625 4062.5M234.375 2500A625 625 0 0 1 1484.375 2500A625 625 0 0 1 234.375 2500M1875 2500A625 625 0 0 1 3125 2500A625 625 0 0 1 1875 2500M3515.625 2500A625 625 0 0 1 4765.625 2500A625 625 0 0 1 3515.625 2500M3515.625 937.5A625 625 0 0 1 4765.625 937.5A625 625 0 0 1 3515.625 937.5M625 1171.875H625A312.5 312.5 0 0 1 312.5 859.375H312.5A312.5 312.5 0 0 1 625 546.875H625A312.5 312.5 0 0 1 937.5 859.375H937.5A312.5 312.5 0 0 1 625 1171.875zM1562.5 1171.875H1562.5A312.5 312.5 0 0 1 1250 859.375H1250A312.5 312.5 0 0 1 1562.5 546.875H1562.5A312.5 312.5 0 0 1 1875 859.375H1875A312.5 312.5 0 0 1 1562.5 1171.875zM2500 1171.875H2500A312.5 312.5 0 0 1 2187.5 859.375H2187.5A312.5 312.5 0 0 1 2500 546.875H2500A312.5 312.5 0 0 1 2812.5 859.375H2812.5A312.5 312.5 0 0 1 2500 1171.875z" />
    <glyph glyph-name="cis-archive"
      unicode="&#xEA1F;"
      horiz-adv-x="5000" d="M468.75 4843.75H4531.25V4160.15625H468.75V4843.75zM3164.0625 3359.375L1835.9375 3359.375L1611.328125 3808.59375L468.75 3808.59375L468.75 2207.03125L4531.25 2207.03125L4531.25 3808.59375L3388.671875 3808.59375L3164.0625 3359.375zM3125 1328.125L1875 1328.125L1611.328125 1855.46875L468.75 1855.46875L468.75 156.25L4531.25 156.25L4531.25 1855.46875L3388.671875 1855.46875L3125 1328.125z" />
    <glyph glyph-name="cis-arrow-bottom"
      unicode="&#xEA20;"
      horiz-adv-x="5000" d="M3795.732421875 2375.1171875L2773.232421875 1352.6171875L2773.232421875 4843.75L2148.232421875 4843.75L2148.232421875 1352.6464843750005L1125.751953125 2375.1171875L683.80859375 1933.1835937500005L2460.7421875 156.25L4237.666015625 1933.1835937500005L3795.732421875 2375.1171875z" />
    <glyph glyph-name="cis-arrow-circle-bottom"
      unicode="&#xEA21;"
      horiz-adv-x="5000" d="M2500 4843.75C1205.5859375 4843.75 156.25 3794.4140625 156.25 2500S1205.5859375 156.25 2500 156.25S4843.75 1205.5859375 4843.75 2500S3794.4140625 4843.75 2500 4843.75zM2501.09375 1261.640625L1356.4453125 2406.328125L1646.484375 2696.3671875L2296.07421875 2046.7773437500005V3750H2706.23046875V2046.767578125L3355.8203124999995 2696.357421875L3645.859374999999 2406.318359375z" />
    <glyph glyph-name="cis-arrow-circle-left"
      unicode="&#xEA22;"
      horiz-adv-x="5000" d="M2500 4843.75C1205.5859375 4843.75 156.25 3794.4140625 156.25 2500S1205.5859375 156.25 2500 156.25S4843.75 1205.5859375 4843.75 2500S3794.4140625 4843.75 2500 4843.75zM3759.765625 2294.921875H2047.16796875L2696.767578125 1645.322265625L2406.728515625 1355.283203125L1262.05078125 2500L2406.748046875 3644.6875L2696.787109375 3354.6484375L2047.177734375 2705.078125H3759.765625z" />
    <glyph glyph-name="cis-arrow-circle-right"
      unicode="&#xEA23;"
      horiz-adv-x="5000" d="M2500 4843.75C1205.5859375 4843.75 156.25 3794.4140625 156.25 2500S1205.5859375 156.25 2500 156.25S4843.75 1205.5859375 4843.75 2500S3794.4140625 4843.75 2500 4843.75zM2593.26171875 1355.302734375L2303.22265625 1645.341796875L2952.83203125 2294.921875H1248.90625V2705.078125H2952.8222656250005L2303.2324218750005 3354.66796875L2593.2714843750005 3644.70703125L3737.94921875 2500z" />
    <glyph glyph-name="cis-arrow-circle-top"
      unicode="&#xEA24;"
      horiz-adv-x="5000" d="M2500 4843.75C1205.5859375 4843.75 156.25 3794.4140625 156.25 2500S1205.5859375 156.25 2500 156.25S4843.75 1205.5859375 4843.75 2500S3794.4140625 4843.75 2500 4843.75zM3354.6679687500005 2390.72265625L2705.078125 3040.3125V1328.125H2294.921875V3040.3125L1645.33203125 2390.72265625L1355.29296875 2680.76171875L2500 3825.439453125L3644.697265625 2680.7421875z" />
    <glyph glyph-name="cis-arrow-left"
      unicode="&#xEA25;"
      horiz-adv-x="5000" d="M4843.75 2898.37890625L1452.83203125 2898.37890625L2478.720703125 3924.70703125L2035.302734375 4368.310546875L252.431640625 2584.6875L2035.302734375 801.044921875L2478.720703125 1244.6582031249995L1452.79296875 2271.025390625L4843.75 2271.025390625L4843.75 2898.37890625z" />
    <glyph glyph-name="cis-arrow-right"
      unicode="&#xEA26;"
      horiz-adv-x="5000" d="M2964.697265625 4368.310546875L2521.2792968749995 3924.70703125L3547.16796875 2898.37890625L156.25 2898.37890625L156.25 2271.025390625L3547.20703125 2271.025390625L2521.2792968749995 1244.6582031249995L2964.697265625 801.044921875L4747.568359375 2584.6875L2964.697265625 4368.310546875z" />
    <glyph glyph-name="cis-arrow-thick-bottom"
      unicode="&#xEA27;"
      horiz-adv-x="5000" d="M3437.5 2890.556640625L3437.5 4843.75L1562.5 4843.75L1562.5 2890.458984375L156.865234375 2890.390625L156.865234375 2516.58203125L2497.490234375 169.5703125L4843.544921875 2512.822265625L4843.896484375 2890.634765625L3437.5 2890.556640625z" />
    <glyph glyph-name="cis-arrow-thick-circle-down"
      unicode="&#xEA28;"
      horiz-adv-x="5000" d="M4157.28515625 4157.28515625A2343.75 2343.75 0 0 1 842.71484375 842.71484375A2343.75 2343.75 0 0 1 4157.28515625 4157.28515625zM3749.921875 2499.912109375L2498.525390625 1250L1250 2501.953125V2656.15234375L2031.25 2656.15234375V3437.5H2968.75V2656.25L3750 2656.25z" />
    <glyph glyph-name="cis-arrow-thick-circle-left"
      unicode="&#xEA29;"
      horiz-adv-x="5000" d="M4157.28515625 4157.28515625A2343.75 2343.75 0 0 1 842.71484375 842.71484375A2343.75 2343.75 0 0 1 4157.28515625 4157.28515625zM2504.130859375 1250H2343.88671875L2343.837890625 2031.25H1562.5V2968.75H2343.75L2343.75 3750L2506.1328125 3749.921875L3756.044921875001 2498.525390625z" />
    <glyph glyph-name="cis-arrow-thick-circle-right"
      unicode="&#xEA2A;"
      horiz-adv-x="5000" d="M4157.28515625 4157.28515625A2343.75 2343.75 0 0 1 842.71484375 842.71484375A2343.75 2343.75 0 0 1 4157.28515625 4157.28515625zM3437.5 2031.25H2656.25L2656.25 1250L2493.857421875 1250.087890625L1243.955078125 2501.474609375L2495.869140625 3750H2656.123046875L2656.123046875 2968.75H3437.5z" />
    <glyph glyph-name="cis-arrow-thick-circle-up"
      unicode="&#xEA2B;"
      horiz-adv-x="5000" d="M4157.28515625 4157.28515625A2343.75 2343.75 0 0 1 842.71484375 842.71484375A2343.75 2343.75 0 0 1 4157.28515625 4157.28515625zM3750 2343.75L2968.75 2343.75V1562.5H2031.25V2343.662109375L1250 2343.662109375L1250.078125 2500.126953125L2501.474609375 3750L3750 2498.046875z" />
    <glyph glyph-name="cis-arrow-thick-from-bottom"
      unicode="&#xEA2C;"
      horiz-adv-x="5000" d="M1875 1328.125L3125 1328.125L3125 2734.375L4296.875 2734.375L4296.875 2890.625L2501.81640625 4687.48046875L703.125 2890.625L703.125 2734.375L1875 2734.375L1875 1328.125zM546.875 625H4453.125V156.25H546.875V625z" />
    <glyph glyph-name="cis-arrow-thick-from-left"
      unicode="&#xEA2D;"
      horiz-adv-x="5000" d="M2890.625 4296.875L2734.375 4296.875L2734.375 3125L1328.125 3125L1328.125 1875L2734.375 1875L2734.375 703.125L2890.625 703.125L4687.48046875 2498.18359375L2890.625 4296.875zM156.25 4453.125H625V546.875H156.25V4453.125z" />
    <glyph glyph-name="cis-arrow-thick-from-right"
      unicode="&#xEA2E;"
      horiz-adv-x="5000" d="M2265.576171875 4296.875L2109.326171875 4296.875L312.48046875 2498.18359375L2109.326171875 703.125L2265.576171875 703.125L2265.576171875 1875L3671.826171875 1875L3671.826171875 3125L2265.576171875 3125L2265.576171875 4296.875zM4374.951171875 4453.125H4843.701171875V546.875H4374.951171875V4453.125z" />
    <glyph glyph-name="cis-arrow-thick-from-top"
      unicode="&#xEA2F;"
      horiz-adv-x="5000" d="M3125 3671.875L1875 3671.875L1875 2265.625L703.125 2265.625L703.125 2109.375L2498.18359375 312.51953125L4296.875 2109.375L4296.875 2265.625L3125 2265.625L3125 3671.875zM546.875 4843.75H4453.125V4375H546.875V4843.75z" />
    <glyph glyph-name="cis-arrow-thick-left"
      unicode="&#xEA30;"
      horiz-adv-x="5000" d="M4843.75 3437.880859375L2890.458984375 3437.880859375L2890.390625 4843.515625L2516.58203125 4843.515625L169.5703125 2502.87109375L2512.822265625 156.826171875L2890.6347656249995 156.484375L2890.556640625 1562.880859375L4843.75 1562.880859375L4843.75 3437.880859375z" />
    <glyph glyph-name="cis-arrow-thick-right"
      unicode="&#xEA31;"
      horiz-adv-x="5000" d="M2493.837890625 4843.173828125L2116.025390625 4843.515625L2116.103515625 3437.119140625L162.91015625 3437.119140625L162.91015625 1562.119140625L2116.201171875 1562.119140625L2116.26953125 156.484375L2490.078125 156.484375L4837.08984375 2497.12890625L2493.837890625 4843.173828125z" />
    <glyph glyph-name="cis-arrow-thick-square-down"
      unicode="&#xEA32;"
      horiz-adv-x="5000" d="M4453.125 4687.5H546.875A234.3750000000001 234.3750000000001 0 0 1 312.5 4453.125V546.875A234.3750000000001 234.3750000000001 0 0 1 546.875 312.5H4453.125A234.3750000000001 234.3750000000001 0 0 1 4687.5 546.875V4453.125A234.3750000000001 234.3750000000001 0 0 1 4453.125 4687.5zM3749.912109375 2499.912109375L2498.525390625 1250L1250 2501.953125V2656.15234375L2031.25 2656.15234375V3593.75H2968.75V2656.25L3750 2656.25z" />
    <glyph glyph-name="cis-arrow-thick-square-left"
      unicode="&#xEA33;"
      horiz-adv-x="5000" d="M4453.125 4687.5H546.875A234.3750000000001 234.3750000000001 0 0 1 312.5 4453.125V546.875A234.3750000000001 234.3750000000001 0 0 1 546.875 312.5H4453.125A234.3750000000001 234.3750000000001 0 0 1 4687.5 546.875V4453.125A234.3750000000001 234.3750000000001 0 0 1 4453.125 4687.5zM3593.75 2031.25H2656.25L2656.25 1250L2499.912109375 1250.087890625L1250 2501.474609375L2501.953125 3750H2656.162109375L2656.162109375 2968.75H3593.75z" />
    <glyph glyph-name="cis-arrow-thick-square-right"
      unicode="&#xEA34;"
      horiz-adv-x="5000" d="M4453.125 4687.5H546.875A234.3750000000001 234.3750000000001 0 0 1 312.5 4453.125V546.875A234.3750000000001 234.3750000000001 0 0 1 546.875 312.5H4453.125A234.3750000000001 234.3750000000001 0 0 1 4687.5 546.875V4453.125A234.3750000000001 234.3750000000001 0 0 1 4453.125 4687.5zM2498.046875 1250H2343.84765625L2343.7988281250005 2031.25H1406.25V2968.75H2343.75L2343.75 3750L2500.087890625 3749.921875L3750 2498.525390625z" />
    <glyph glyph-name="cis-arrow-thick-square-up"
      unicode="&#xEA35;"
      horiz-adv-x="5000" d="M4453.125 4687.5H546.875A234.3750000000001 234.3750000000001 0 0 1 312.5 4453.125V546.875A234.3750000000001 234.3750000000001 0 0 1 546.875 312.5H4453.125A234.3750000000001 234.3750000000001 0 0 1 4687.5 546.875V4453.125A234.3750000000001 234.3750000000001 0 0 1 4453.125 4687.5zM3750 2343.876953125L2968.75 2343.876953125V1406.25H2031.25V2343.75L1250 2343.75L1250.078125 2500.087890625L2501.474609375 3750L3750 2498.046875z" />
    <glyph glyph-name="cis-arrow-thick-to-bottom"
      unicode="&#xEA36;"
      horiz-adv-x="5000" d="M3125 4687.48046875L1875 4687.48046875L1875 3281.23046875L703.125 3281.23046875L703.125 3124.98046875L2498.18359375 1328.125L4296.875 3124.98046875L4296.875 3281.23046875L3125 3281.23046875L3125 4687.48046875zM546.875 625H4453.125V156.25H546.875V625z" />
    <glyph glyph-name="cis-arrow-thick-to-left"
      unicode="&#xEA37;"
      horiz-adv-x="5000" d="M3124.98046875 703.125L3281.23046875 703.125L3281.23046875 1875L4687.48046875 1875L4687.48046875 3125L3281.23046875 3125L3281.23046875 4296.875L3124.98046875 4296.875L1328.125 2501.81640625L3124.98046875 703.125zM156.25 4453.125H625V546.875H156.25V4453.125z" />
    <glyph glyph-name="cis-arrow-thick-to-right"
      unicode="&#xEA38;"
      horiz-adv-x="5000" d="M1718.76953125 703.125L1875.01953125 703.125L3671.875 2501.81640625L1875.01953125 4296.875L1718.76953125 4296.875L1718.76953125 3125L312.51953125 3125L312.51953125 1875L1718.76953125 1875L1718.76953125 703.125zM4375 4453.125H4843.75V546.875H4375V4453.125z" />
    <glyph glyph-name="cis-arrow-thick-to-top"
      unicode="&#xEA39;"
      horiz-adv-x="5000" d="M1875 312.51953125L3125 312.51953125L3125 1718.76953125L4296.875 1718.76953125L4296.875 1875.01953125L2501.81640625 3671.875L703.125 1875.01953125L703.125 1718.76953125L1875 1718.76953125L1875 312.51953125zM546.875 4843.75H4453.125V4375H546.875V4843.75z" />
    <glyph glyph-name="cis-arrow-thick-top"
      unicode="&#xEA3A;"
      horiz-adv-x="5000" d="M2503.18359375 4837.08984375L157.12890625 2493.8378906250005L156.787109375 2116.025390625L1563.18359375 2116.103515625L1563.18359375 162.91015625L3438.18359375 162.91015625L3438.18359375 2116.201171875L4843.818359375 2116.279296875L4843.818359375 2490.078125L2503.18359375 4837.08984375z" />
    <glyph glyph-name="cis-arrow-top"
      unicode="&#xEA3B;"
      horiz-adv-x="5000" d="M1165.009765625 2624.8828125L2187.509765625 3647.3828125L2187.509765625 156.25L2812.5097656249995 156.25L2812.5097656249995 3647.353515625L3834.990234374999 2624.8828125L4276.93359375 3066.81640625L2500 4843.75L723.06640625 3066.81640625L1165.009765625 2624.8828125z" />
    <glyph glyph-name="cis-art-track"
      unicode="&#xEA3C;"
      horiz-adv-x="5000" d="M1777.34375 3906.25H156.25V2285.15625C1050.126953125 2285.15625 1777.34375 3012.373046875 1777.34375 3906.25zM156.25 1933.59375V1093.75H2968.75V3906.25H2128.90625C2128.90625 2818.525390625 1243.974609375 1933.59375 156.25 1933.59375zM3359.375 3906.25H4843.75V3437.5H3359.375V3906.25zM3359.375 2734.375H4843.75V2265.625H3359.375V2734.375zM3359.375 1640.625H4296.875V1171.875H3359.375V1640.625z" />
    <glyph glyph-name="cis-aspect-ratio"
      unicode="&#xEA3D;"
      horiz-adv-x="5000" d="M156.25 658.486328125H4843.75V4341.5234375H156.25zM3203.125 3798.828125H4267.578125V2734.375H3857.421875V3388.671875H3203.125zM732.421875 2265.625H1142.578125V1611.328125H1796.875V1201.171875H732.421875z" />
    <glyph glyph-name="cis-assistive-listening-system"
      unicode="&#xEA3E;"
      horiz-adv-x="5000" d="M4220.33203125 4337.51953125A2529.296875 2529.296875 0 0 1 3117.05078125 4986.669921875L2962.55859375 4542.099609375A2081.826171875 2081.826171875 0 0 0 4447.490234375 2987.880859375L4906.25 3087.6171875A2526.2695312499995 2526.2695312499995 0 0 1 4220.33203125 4337.51953125zM2599.267578125 4149.4140625A1493.3007812499998 1493.3007812499998 0 0 1 1084.82421875 2656.25H1553.5742187500002A1024.55078125 1024.55078125 0 0 0 2592.7734375 3680.6640625C3146.025390625 3672.98828125 3599.0625 3216.484375 3602.666015625 2663.0859375A1015.01953125 1015.01953125 0 0 0 3284.306640625 1913.9843749999995A327.9882812500001 327.9882812500001 0 0 1 3183.0859375 1677.2949218749995V1086.9140625A609.970703125 609.970703125 0 0 0 2573.7988281249995 477.626953125H2473.2128906249995V8.876953125H2573.7988281249995A1079.2578125 1079.2578125 0 0 1 3651.787109375 1086.9140625V1618.49609375A1499.677734375 1499.677734375 0 0 1 4071.396484375 2666.142578125A1497.34375 1497.34375 0 0 1 2599.267578125 4149.4140625zM2854.912109375 2665.17578125H3323.662109375A742.48046875 742.48046875 0 1 1 1838.7109375000005 2665.17578125H2307.4609375A273.73046875 273.73046875 0 1 0 2854.912109375 2665.17578125zM2109.375 2265.625H2578.125V1796.875H2109.375V2265.625zM859.375 1015.625H1328.125V546.875H859.375V1015.625zM1006.1465684440718 1787.3971278747335L1337.6028721252658 2118.8534315559277L2431.3534315559264 1025.102872125267L2099.8971278747317 693.6465684440727L1006.1465684440714 1787.3971278747335z" />
    <glyph glyph-name="cis-asterisk"
      unicode="&#xEA3F;"
      horiz-adv-x="5000" d="M3146.1621093749995 2500L4062.5 3006.298828125L4062.5 3720.3515625L2812.5 3029.6875L2812.5 4296.875L2187.5 4296.875L2187.5 3029.6875L937.5 3720.3515625L937.5 3006.298828125L1853.837890625 2500L937.5 1993.7011718749995L937.5 1279.6484375L2187.5 1970.3125L2187.5 703.125L2812.5 703.125L2812.5 1970.3125L4062.5 1279.6484375L4062.5 1993.7011718749995L3146.1621093749995 2500z" />
    <glyph glyph-name="cis-asterisk-circle"
      unicode="&#xEA40;"
      horiz-adv-x="5000" d="M2505.859375 4831.6796875C1214.677734375 4831.6796875 167.9687500000002 3784.970703125 167.9687500000002 2493.7890624999995S1214.6679687500002 155.8984374999991 2505.859375 155.8984374999991S4843.75 1202.6171875000005 4843.75 2493.798828125S3797.041015625 4831.6796875 2505.859375 4831.6796875zM2265.625 1185.4296875V2093.486328125L1356.89453125 1567.3828125V2109.0234375L2032.2265625 2500L1356.89453125 2890.9765625V3432.6171875L2265.625 2906.513671875V3814.5703125H2734.375V2906.513671875L3643.105468749999 3432.6171875V2890.9765625L2967.7734375 2500L3643.105468749999 2109.0234375V1567.3828125L2734.375 2093.486328125V1185.4296875z" />
    <glyph glyph-name="cis-at"
      unicode="&#xEA41;"
      horiz-adv-x="5000" d="M4920.234375 2734.375A2095.517578125 2095.517578125 0 0 1 4728.69140625 3532.646484375A2295.1171875000005 2295.1171875000005 0 0 1 4207.08984375 4253.02734375C3746.982421874999 4684.3359375 3140.732421875 4921.875 2500 4921.875A2421.8749999999995 2421.8749999999995 0 0 1 787.48046875 787.48046875A2421.8749999999995 2421.8749999999995 0 0 1 4194.970703125001 770.09765625L3866.894531250001 1104.90234375A1942.0898437500005 1942.0898437500005 0 0 0 2500 546.875C1423.046875 546.875 546.875 1423.0468750000005 546.875 2500S1423.046875 4453.125 2500 4453.125C3558.701171875 4453.125 4453.125 3630.25390625 4453.125 2656.25V2304.6875C4453.125 2067.75390625 4242.841796875 1875 3984.375 1875S3515.625 2067.75390625 3515.625 2304.6875V3515.625H3046.875V3337.4609375A1054.6875 1054.6875 0 1 1 3243.5839843750005 1754.716796875A951.171875 951.171875 0 0 1 3984.375 1406.25C4501.318359375 1406.25 4921.875 1809.287109375 4921.875 2304.6875V2734.375zM2460.9375 1875A585.9375 585.9375 0 1 0 3046.875 2460.9375A586.6015625 586.6015625 0 0 0 2460.9375 1875z" />
    <glyph glyph-name="cis-audio"
      unicode="&#xEA42;"
      horiz-adv-x="5000" d="M1177.099609375 3822.900390625H1177.099609375L845.6445312499999 4154.35546875A2339.619140625 2339.619140625 0 0 1 845.6445312499999 845.64453125L1177.099609375 1177.0996093749995A1870.87890625 1870.87890625 0 0 0 1177.099609375 3822.900390625zM4149.4140625 4159.1796875L3817.958984374999 3827.724609375C3819.589843749999 3826.09375 3821.269531249999 3824.53125 3822.900390624999 3822.900390625A1870.87890625 1870.87890625 0 0 0 3822.900390624999 1177.0996093749995L4154.355468749999 845.6445312499991A2339.4921875 2339.4921875 0 0 1 4149.4140625 4159.1796875zM1533.4082031249998 3466.591796875A1366.982421875 1366.982421875 0 0 1 1533.4082031249998 1533.408203125L1865.166015625 1865.166015625A896.7773437500001 896.7773437500001 0 0 0 1865.166015625 3134.833984375zM3461.650390625 3471.416015625L3129.8828125 3139.6484375A896.6894531249999 896.6894531249999 0 0 0 3134.8242187499995 1865.1562499999995L3466.5820312499995 1533.3984375A1366.865234375 1366.865234375 0 0 1 3461.640625 3471.40625zM2500 2968.75A469.033203125 469.033203125 0 1 1 2826.4550781249995 2836.220703125A466.42578125 466.42578125 0 0 1 2500 2968.75z" />
    <glyph glyph-name="cis-audio-description"
      unicode="&#xEA43;"
      horiz-adv-x="5000" d="M4687.5 4375H312.5A156.25 156.25 0 0 1 156.25 4218.75V781.25A156.25 156.25 0 0 1 312.5 625H4687.5A156.25 156.25 0 0 1 4843.75 781.25V4218.75A156.25 156.25 0 0 1 4687.5 4375zM2054.296875 1640.625L1930.5957031250005 2011.71875H1272.5292968749998L1148.828125 1640.625H778.251953125L1357.67578125 3378.90625H1845.4492187500005L2424.873046875 1640.625zM4160.15625 2443.759765625A808.203125 808.203125 0 0 0 3352.8613281249995 1636.474609375H2714.84375V3378.90625H3352.8613281249995A808.203125 808.203125 0 0 0 4160.15625 2571.611328125zM1389.7167968749998 2363.28125L1813.4082031250005 2363.28125L1601.5625 2998.818359375L1389.7167968749998 2363.28125zM3352.8613281250005 3027.34375H3066.40625V1988.037109375H3352.8613281249995A456.240234375 456.240234375 0 0 1 3808.59375 2443.759765625V2571.611328125A456.2499999999999 456.2499999999999 0 0 1 3352.8613281250005 3027.34375z" />
    <glyph glyph-name="cis-audio-spectrum"
      unicode="&#xEA44;"
      horiz-adv-x="5000" d="M156.25 3437.5H625V1562.5H156.25V3437.5zM3531.25 3437.5H4000V1562.5H3531.25V3437.5zM1000 4140.625H1468.75V937.5H1000V4140.625zM2687.5 4062.5H3156.25V937.5H2687.5V4062.5zM4375 4062.5H4843.75V937.5H4375V4062.5zM1843.75 4843.75H2312.5V156.25H1843.75V4843.75z" />
    <glyph glyph-name="cis-av-timer"
      unicode="&#xEA45;"
      horiz-adv-x="5000" d="M859.375 2421.875A312.5 312.5 0 0 1 1484.375 2421.875A312.5 312.5 0 0 1 859.375 2421.875M2187.5 1250A312.5 312.5 0 0 1 2812.5 1250A312.5 312.5 0 0 1 2187.5 1250M3515.625 2421.875A312.5 312.5 0 0 1 4140.625 2421.875A312.5 312.5 0 0 1 3515.625 2421.875M4157.28515625 4157.28515625A2326.044921875 2326.044921875 0 0 1 2734.375 4832.236328125V4843.75H2265.625V3750H2734.375V4360.3515625C3658.037109375001 4244.6875 4375 3454.51171875 4375 2500C4375 1466.1230468749995 3533.8769531250005 625 2500 625S625 1466.1230468749995 625 2500A1870.9082031249995 1870.9082031249995 0 0 0 1119.697265625 3769.111328125L2240.99609375 2354.4140625L2608.3984375 2645.5859375L1177.8515625 4450.390625L993.212890625 4295.263671875A2343.75 2343.75 0 1 1 4157.275390625 4157.28515625z" />
    <glyph glyph-name="cis-baby"
      unicode="&#xEA46;"
      horiz-adv-x="5000" d="M4154.19921875 3046.533203125A1800.6347656249998 1800.6347656249998 0 0 1 2921.103515625 4090.927734375L3167.4999999999995 4485.15625L2770.0390625 4733.59375L2397.587890625 4137.6953125A1797.763671875 1797.763671875 0 0 1 845.830078125 3046.484375A702.91015625 702.91015625 0 0 1 845.830078125 1640.9179687499995A1797.568359375 1797.568359375 0 0 1 4154.228515625 1640.9179687499995A702.91015625 702.91015625 0 0 1 4154.228515625 3046.484375zM2988.28125 2832.03125H3339.84375V2480.46875H2988.28125zM1660.15625 2832.03125H2011.71875V2480.46875H1660.15625zM2500 1250A859.375 859.375 0 0 0 1640.625 2109.375H3359.375A859.375 859.375 0 0 0 2500 1250z" />
    <glyph glyph-name="cis-baby-carriage"
      unicode="&#xEA47;"
      horiz-adv-x="5000" d="M4298.017578125 1729.033203125L4457.12890625 2325.712890625V2656.25A1640.6250000000002 1640.6250000000002 0 0 1 2816.5039062500005 4296.875H2568.10546875V2572.119140625H1455.37109375L1280.0781250000002 3295.205078125A555.1464843750001 555.1464843750001 0 0 1 739.111328125 3720.703125H156.25V3310.546875H739.111328125A146.09375 146.09375 0 0 0 881.46484375 3198.57421875L1231.89453125 1753.06640625Q1279.3847656250002 1757.744140625 1328.125 1757.8125A978.3007812499998 978.3007812499998 0 0 0 2253.41796875 1093.75H3137.20703125A976.875 976.875 0 0 0 4298.017578125 1729.033203125zM1904.013671875 1024.53125Q1898.076171875 1038.5546874999995 1891.494140625 1052.2167968749995Q1878.3203125 1079.5605468749995 1862.6367187499995 1105.33203125T1828.9550781249995 1155.1953124999995Q1810.9667968749995 1179.2675781249995 1790.7617187499998 1201.484375T1748.3593749999995 1243.8867187499995Q1726.1621093749995 1264.0527343749995 1702.0703124999995 1282.0800781249995T1652.2070312499995 1315.76171875Q1626.4355468749993 1331.38671875 1599.0917968749995 1344.6191406249995Q1585.4199218749995 1351.1914062499995 1571.4062499999995 1357.1386718749995A621.015625 621.015625 0 0 1 1423.3105468749995 1399.052734374999A633.0273437499999 633.0273437499999 0 0 1 1232.9394531249995 1399.052734374999A621.015625 621.015625 0 0 1 1084.8437499999998 1357.1386718749995Q1070.8300781249995 1351.2011718749995 1057.1582031249998 1344.6191406249995Q1029.8144531249998 1331.4453124999995 1004.0429687499995 1315.76171875T954.1796874999995 1282.0800781249995Q930.1074218749995 1264.091796875 907.8906249999998 1243.8867187499995T865.4882812499998 1201.484375Q845.3124999999998 1179.296875 827.2949218749998 1155.1953124999995T793.6132812499998 1105.33203125Q777.9882812499999 1079.5703125 764.7558593749998 1052.2167968749995Q758.1738281249998 1038.544921875 752.2363281249998 1024.53125A621.015625 621.015625 0 0 1 710.3222656249998 876.435546875A630.634765625 630.634765625 0 0 1 703.125 781.25A622.6171875 622.6171875 0 0 1 764.7558593750001 510.283203125Q777.9199218750001 482.939453125 793.61328125 457.16796875A628.046875 628.046875 0 0 1 907.8710937500002 318.61328125Q930.0585937500002 298.447265625 954.16015625 280.419921875T1004.0234375 246.73828125Q1029.78515625 231.1132812499991 1057.138671875 217.880859375Q1070.810546875 211.30859375 1084.82421875 205.361328125A621.015625 621.015625 0 0 1 1232.919921875 163.447265625A633.0273437499999 633.0273437499999 0 0 1 1423.291015625 163.447265625A621.015625 621.015625 0 0 1 1571.38671875 205.361328125Q1585.400390625 211.298828125 1599.072265625 217.880859375Q1626.4160156250002 231.0546875 1652.1875 246.73828125T1702.05078125 280.419921875Q1726.123046875 298.408203125 1748.33984375 318.61328125A628.046875 628.046875 0 0 1 1862.59765625 457.16796875Q1878.2226562499995 482.9296874999991 1891.455078125 510.283203125A622.6171875 622.6171875 0 0 1 1953.125 781.25A630.634765625 630.634765625 0 0 1 1945.927734375 876.435546875A621.015625 621.015625 0 0 1 1904.013671875 1024.53125zM4680.302734375 876.435546875A621.015625 621.015625 0 0 1 4638.388671875 1024.5312500000005Q4632.451171875 1038.5546875 4625.869140625 1052.216796875Q4612.6953125 1079.5605468750005 4597.01171875 1105.3320312500005T4563.330078125 1155.1953125000005Q4545.341796875 1179.267578125 4525.13671875 1201.4843750000005T4482.734375 1243.8867187500005Q4460.546875000001 1264.052734375 4436.4453125 1282.0800781250005T4386.58203125 1315.7617187500005Q4360.820312500001 1331.3867187500005 4333.466796875 1344.619140625Q4319.794921875 1351.19140625 4305.78125 1357.138671875A621.015625 621.015625 0 0 1 4157.685546875 1399.052734375A633.0273437499999 633.0273437499999 0 0 1 3967.314453125001 1399.052734375A621.015625 621.015625 0 0 1 3819.21875 1357.138671875Q3805.195312500001 1351.201171875 3791.533203125001 1344.619140625Q3764.189453125001 1331.4453125000005 3738.41796875 1315.7617187500005T3688.554687500001 1282.0800781250005Q3664.482421875001 1264.0917968750005 3642.265625 1243.8867187500005T3599.8632812500005 1201.4843750000005Q3579.6972656250005 1179.2968750000005 3561.6699218750005 1155.1953125000005T3527.98828125 1105.3320312500005Q3512.36328125 1079.5703125000005 3499.1308593750005 1052.216796875Q3492.5585937500005 1038.5449218750005 3486.6113281250005 1024.5312500000005A621.015625 621.015625 0 0 1 3444.697265625001 876.435546875A630.634765625 630.634765625 0 0 1 3437.5 781.25A622.6171875 622.6171875 0 0 1 3499.130859375 510.283203125Q3512.3046874999995 482.939453125 3527.9882812499995 457.16796875A628.046875 628.046875 0 0 1 3642.246093749999 318.61328125Q3664.433593749999 298.447265625 3688.535156249999 280.419921875T3738.398437499999 246.73828125Q3764.160156249999 231.1132812499991 3791.513671874999 217.880859375Q3805.185546874999 211.30859375 3819.199218749999 205.361328125A621.015625 621.015625 0 0 1 3967.294921874999 163.447265625A633.0273437499999 633.0273437499999 0 0 1 4157.666015625 163.447265625A621.015625 621.015625 0 0 1 4305.76171875 205.361328125Q4319.78515625 211.298828125 4333.447265625 217.880859375Q4360.791015625 231.0546875 4386.5625 246.73828125T4436.42578125 280.419921875Q4460.498046875 298.408203125 4482.71484375 318.61328125A628.046875 628.046875 0 0 1 4596.97265625 457.16796875Q4612.59765625 482.9296874999991 4625.830078125 510.283203125A622.6171875 622.6171875 0 0 1 4687.5 781.25A630.634765625 630.634765625 0 0 1 4680.302734375 876.435546875z" />
    <glyph glyph-name="cis-backspace"
      unicode="&#xEA48;"
      horiz-adv-x="5000" d="M4453.125 4218.75H1968.0078125A234.3750000000001 234.3750000000001 0 0 1 1797.8906249999998 4145.5859375L312.5 2578.125V2421.875L1797.8515625 854.4140625A234.3750000000001 234.3750000000001 0 0 1 1968.0078125 781.25H4453.125A234.3750000000001 234.3750000000001 0 0 1 4687.5 1015.625V3984.375A234.3750000000001 234.3750000000001 0 0 1 4453.125 4218.75zM4108.671875 1686.796875L3860.078125 1438.203125L3046.875 2251.40625L2233.671875 1438.203125L1985.0781250000005 1686.796875L2798.28125 2500L1985.078125 3313.203125L2233.671875 3561.796875L3046.875 2748.59375L3860.078125 3561.796875L4108.671875 3313.203125L3295.46875 2500z" />
    <glyph glyph-name="cis-badge"
      unicode="&#xEA49;"
      horiz-adv-x="5000" d="M4056.513671875 3492.05078125L4035.078125 3961.328125L3639.384765625 4214.521484375L3386.181640625 4610.224609375L2916.89453125 4631.650390625L2499.78515625 4847.724609375L2082.666015625 4631.650390625L1613.369140625 4610.224609375L1360.17578125 4214.521484375L964.482421875 3961.328125L943.046875 3492.05078125L727.255859375 3075.478515625L935.3906250000002 2667.40234375L937.9785156250002 2174.736328125L1356.689453125 1935.13671875L1554.326171875 1565.44921875L2083.828125 1562.587890625L2500.068359375 1335.52734375L2918.955078125 1565.80078125L3431.93359375 1564.755859375L3474.8144531250005 1640.48828125L3474.8144531250005 1640.48828125L3641.07421875 1934.08203125L4062.0703125 2174.7167968749995L4064.39453125 2667.67578125L4272.294921875 3075.498046875L4056.513671875 3492.05078125zM3431.298828125 1252.2656250000005L2998.896484375 1253.1347656250005L2650.6054687500005 1061.6796875L2500.6445312499995 979.23828125L2350.41015625 1061.19140625L2003.33984375 1250.517578125L1552.63671875 1252.94921875L1445.1171875 1253.53515625L1214.921875 156.25L1665.107421875 156.25L2499.365234375 603.7109375L3324.228515625 156.25L3786.181640625 156.25L3556.30859375 1252.01171875L3431.298828125 1252.2656250000005z" />
    <glyph glyph-name="cis-balance-scale"
      unicode="&#xEA4A;"
      horiz-adv-x="5000" d="M2705.078125 3217.236328125A647.353515625 647.353515625 0 0 1 3110.888671875 3623.046875H4062.5V4033.203125H3110.888671875A644.326171875 644.326171875 0 0 1 1889.111328125 4033.203125H937.5V3623.046875H1889.111328125A647.353515625 647.353515625 0 0 1 2294.921875 3217.236328125V751.953125H1250V341.796875H3750V751.953125H2705.078125zM2500 3593.75A234.3750000000001 234.3750000000001 0 1 0 2734.375 3828.125A234.3750000000001 234.3750000000001 0 0 0 2500 3593.75zM1944.8046875 1501.630859375L2003.3984375 1566.083984375V1832.40234375L1293.9453125 3330.078125H893.5546875L184.091796875 1832.40234375V1554.755859375L238.369140625 1495.859375A1159.384765625 1159.384765625 0 0 1 1088.974609375 1123.046875H1092.880859375A1159.384765625 1159.384765625 0 0 1 1944.8046875 1501.630859375zM796.875 2167.96875L1093.75 2794.6875L1390.625 2167.96875zM4106.4453125 3330.078125H3706.0546875L2996.591796875 1832.40234375V1554.755859375L3050.869140625 1495.859375A1159.384765625 1159.384765625 0 0 1 3901.474609375001 1123.046875H3905.380859375A1159.384765625 1159.384765625 0 0 1 4757.294921875 1501.62109375L4815.888671875 1566.0742187500005V1832.40234375zM3609.375 2167.96875L3906.25 2794.6875L4203.125 2167.96875z" />
    <glyph glyph-name="cis-balance-scale-left"
      unicode="&#xEA4B;"
      horiz-adv-x="5000" d="M896.42578125 2783.203125L187.001953125 1285.52734375V1007.880859375L241.2890625000001 948.984375A1159.384765625 1159.384765625 0 0 1 1091.89453125 576.171875H1095.80078125A1159.404296875 1159.404296875 0 0 1 1947.724609375 954.74609375L2006.318359375 1019.1992187500005V1285.52734375L1296.875 2783.203125zM799.8046875 1621.09375L1096.6796875 2247.8125L1393.5546875 1621.09375zM4109.375 3955.078125H3708.92578125L2999.501953125 2457.40234375V2179.755859375L3053.7890625000005 2120.859375A1159.384765625 1159.384765625 0 0 1 3904.39453125 1748.046875H3908.30078125A1159.404296875 1159.404296875 0 0 1 4760.224609375 2126.62109375L4818.818359375 2191.0742187500005V2457.40234375zM3612.3046875 2792.96875L3909.179687499999 3419.6875L4206.0546875 2792.96875zM2705.078125 3217.236328125A645.5078125 645.5078125 0 0 1 3144.53125 3828.125C3144.53125 3844.248046875 3143.73046875 3860.185546875 3142.578125 3876.025390625L4062.5 4274.00390625V4711.826171875L4059.19921875 4719.462890625L2983.212890625 4253.974609375A644.12109375 644.12109375 0 0 1 1855.46875 3828.125C1855.46875 3813.65234375 1856.123046875 3799.345703125 1857.060546875 3785.15625L937.5 3410.15625V2967.216796875L2013.57421875 3405.966796875A646.240234375 646.240234375 0 0 1 2294.921875 3217.236328125V341.796875H3671.875V751.953125H2705.078125zM2500 3593.75A234.3750000000001 234.3750000000001 0 1 0 2734.375 3828.125A234.3750000000001 234.3750000000001 0 0 0 2500 3593.75z" />
    <glyph glyph-name="cis-balance-scale-right"
      unicode="&#xEA4C;"
      horiz-adv-x="5000" d="M1953.18359375 2048.57421875L2011.71875 2113.0273437500005V2379.27734375L1302.294921875 3876.953125H901.81640625L192.3828125 2379.27734375V2101.630859375L246.66015625 2042.734375A1159.404296875 1159.404296875 0 0 1 1097.28515625 1669.921875H1101.19140625A1159.482421875 1159.482421875 0 0 1 1953.18359375 2048.57421875zM805.1855468749999 2714.84375L1102.060546875 3341.5625L1398.92578125 2714.84375zM4105.029296875 2802.734375H3704.55078125L2995.1171875 1305.05859375V1027.412109375L3049.39453125 968.515625A1159.404296875 1159.404296875 0 0 1 3900.01953125 595.703125H3903.92578125A1159.482421875 1159.482421875 0 0 1 4755.91796875 974.3457031250005L4814.453125 1038.7988281250005V1305.05859375zM3607.958984375001 1640.625L3904.833984375 2267.34375L4201.66015625 1640.625zM4058.125 3429.6875L3138.564453125 3804.6875C3139.5410156250005 3818.916015625 3140.15625 3833.22265625 3140.15625 3847.65625A644.12109375 644.12109375 0 0 1 2012.412109375 4273.505859375L936.42578125 4738.994140625L933.1250000000002 4731.357421875V4293.53515625L1853.046875 3895.556640625C1851.884765625 3879.716796875 1851.0937500000005 3863.779296875 1851.0937500000005 3847.65625A645.5078125 645.5078125 0 0 1 2290.546875 3236.767578125V771.484375H1323.7500000000002V361.328125H2700.703125V3236.767578125A646.240234375 646.240234375 0 0 1 2982.05078125 3425.517578125L4058.125 2986.767578125zM2495.625 3613.28125A234.3750000000001 234.3750000000001 0 1 0 2730 3847.65625A234.3750000000001 234.3750000000001 0 0 0 2495.625 3613.28125z" />
    <glyph glyph-name="cis-ban"
      unicode="&#xEA4D;"
      horiz-adv-x="5000" d="M4098.8671875 4103.06640625A2276.46484375 2276.46484375 0 0 1 879.453125 883.662109375A2276.46484375 2276.46484375 0 0 1 4098.8671875 4103.06640625zM2489.16015625 4144.833984375A1642.021484375 1642.021484375 0 0 0 3417.05078125 3858.80859375L1123.7109375 1565.4296875A1642.021484375 1642.021484375 0 0 0 837.6953125 2493.3691406250005C837.6953125 3403.984375 1578.53515625 4144.833984375 2489.16015625 4144.833984375zM2489.16015625 841.89453125A1642.12890625 1642.12890625 0 0 0 1566.40625 1124.3261718749995L3858.193359375 3416.07421875A1642.0019531249998 1642.0019531249998 0 0 0 4140.625 2493.3691406250005C4140.625 1582.744140625 3399.78515625 841.89453125 2489.16015625 841.89453125z" />
    <glyph glyph-name="cis-bank"
      unicode="&#xEA4E;"
      horiz-adv-x="5000" d="M2419.521484375 4859.78515625L156.25 3770.05859375L156.25 3203.125L4843.75 3203.125L4843.75 3773.06640625L2419.521484375 4859.78515625zM156.25 781.25H4843.75V156.25H156.25V781.25zM390.625 2812.5H1015.625V1171.875H390.625V2812.5zM3984.375 2812.5H4609.375V1171.875H3984.375V2812.5zM1588.544921875 2812.5H2213.544921875V1171.875H1588.544921875V2812.5zM2786.4550781250005 2812.5H3411.4550781250005V1171.875H2786.4550781250005V2812.5z" />
    <glyph glyph-name="cis-bar-chart"
      unicode="&#xEA4F;"
      horiz-adv-x="5000" d="M1718.75 3906.25H2578.125A234.3750000000001 234.3750000000001 0 0 0 2812.5 3671.875V1484.375A234.3750000000001 234.3750000000001 0 0 0 2578.125 1250H1718.75A234.3750000000001 234.3750000000001 0 0 0 1484.375 1484.375V3671.875A234.3750000000001 234.3750000000001 0 0 0 1718.75 3906.25zM3750 4843.75H4609.375A234.3750000000001 234.3750000000001 0 0 0 4843.75 4609.375V1484.375A234.3750000000001 234.3750000000001 0 0 0 4609.375 1250H3750A234.3750000000001 234.3750000000001 0 0 0 3515.625 1484.375V4609.375A234.3750000000001 234.3750000000001 0 0 0 3750 4843.75zM781.25 4843.75L156.25 4843.75L156.25 156.25L4843.75 156.25L4843.75 781.25L781.25 781.25L781.25 4843.75z" />
    <glyph glyph-name="cis-barcode"
      unicode="&#xEA50;"
      horiz-adv-x="5000" d="M0 468.75H5000V4453.125H0zM4013.671875 3750H4423.828125V1250H4013.671875zM3326.171875 3750H3736.328125V1718.75H3326.171875zM2638.6718750000005 3750H3048.8281250000005V1718.75H2638.6718750000005zM1951.1718750000005 3750H2361.3281250000005V1250H1951.1718750000005zM1263.6718750000002 3750H1673.8281250000002V1718.75H1263.6718750000002zM576.171875 3750H986.328125V1250H576.171875z" />
    <glyph glyph-name="cis-baseball"
      unicode="&#xEA51;"
      horiz-adv-x="5000" d="M234.375 4023.4375A742.1875000000001 742.1875000000001 0 0 1 1718.75 4023.4375A742.1875000000001 742.1875000000001 0 0 1 234.375 4023.4375M4655.37109375 4641.50390625H4655.37109375A597.87109375 597.87109375 0 0 1 3796.445312499999 4627.646484375L3431.2109375 4238.10546875Q3046.953125 3828.22265625 2690.9765625 3393.1640625L1640.625 2109.375L1643.14453125 2106.85546875L698.0859375 1098.7890625L644.53125 1152.34375A193.359375 193.359375 0 0 1 371.09375 878.90625L878.90625 371.09375A193.359375 193.359375 0 0 1 1152.34375 644.53125L1098.7890625 698.0859375L2106.85546875 1643.14453125L2109.375 1640.625L2986.328125 2318.2421875000005A16664.39453125 16664.39453125 0 0 1 4580.400390625 3721.025390625L4655.37109375 3795.99609375A597.87109375 597.87109375 0 0 1 4655.37109375 4641.50390625z" />
    <glyph glyph-name="cis-basket"
      unicode="&#xEA52;"
      horiz-adv-x="5000" d="M4303.3984375 3203.125L3824.94140625 4843.75L3336.66015625 4843.75L3815.126953125 3203.125L1184.873046875 3203.125L1663.33984375 4843.75L1175.05859375 4843.75L696.6015624999999 3203.125L156.25 3203.125L156.25 2424.365234375L468.75 2424.365234375L469.482421875 2424.365234375L4530.517578125 2424.365234375L4531.25 2424.365234375L4843.75 2424.365234375L4843.75 3203.125L4303.3984375 3203.125zM525.60546875 2014.208984375L207.041015625 2014.208984375L574.765625 156.25L4424.970703125 156.25L4796.5625 2014.208984375L4477.87109375 2014.208984375L525.60546875 2014.208984375z" />
    <glyph glyph-name="cis-basket-arrow-down"
      unicode="&#xEA53;"
      horiz-adv-x="5000" d="M4424.970703125 156.25L4843.75 2250.15625V3203.125H4303.3984375L3824.94140625 4843.75H3336.66015625L3815.17578125 3203.125H1184.873046875L1663.33984375 4843.75H1175.05859375L696.6015624999999 3203.125H156.25V2270.8203125L574.765625 156.25zM2262.861328125 2509.453125H2731.611328125V1608.466796875H3284.072265625V1559.462890625L2496.40625 771.796875L1715.9863281249998 1552.2167968750005V1608.4667968750005H2262.861328125V2509.453125z" />
    <glyph glyph-name="cis-basket-loaded"
      unicode="&#xEA54;"
      horiz-adv-x="5000" d="M574.765625 156.25L4424.970703125 156.25L4796.5625 2014.208984375L207.041015625 2014.208984375L574.765625 156.25zM4494.53125 3203.125L3958.164062499999 4843.75L3464.9999999999995 4843.75L4001.3671875 3203.125L998.6328125 3203.125L1535 4843.75L1041.8359375 4843.75L505.46875 3203.125L156.25 3203.125L156.25 2424.365234375L4843.75 2424.365234375L4843.75 3203.125L4494.53125 3203.125zM1796.015625 3527.412109375H3642.509765625L3284.3164062499995 3950.72265625Q3276.328125 3960.17578125 3268.1445312499995 3969.375C3087.3828124999995 4172.65625 2825.537109375 4285.087890625 2553.5156249999995 4285.087890625H2492.7539062499995C2236.5332031249995 4285.087890625 1988.339843749999 4185.78125 1809.5410156249995 4002.255859375Q1800.2636718749998 3992.744140625 1791.2304687499998 3982.94921875L1370.7226562499998 3527.412109375z" />
    <glyph glyph-name="cis-basket-plus"
      unicode="&#xEA55;"
      horiz-adv-x="5000" d="M4303.3984375 3208.30078125L3824.94140625 4848.92578125H3336.66015625L3815.1171875 3208.30078125H1184.8828125L1663.33984375 4848.92578125H1175.05859375L696.6015624999999 3208.30078125H156.25V2275.99609375L574.765625 161.42578125H4424.970703125L4843.75 2255.3320312500005V3208.30078125zM3203.2324218750005 1474.609375H2705.1855468750005V976.5625H2295.0292968750005V1474.609375H1796.9824218750002V1884.765625H2295.0292968750005V2382.8125H2705.1855468750005V1884.765625H3203.2324218750005z" />
    <glyph glyph-name="cis-basketball"
      unicode="&#xEA56;"
      horiz-adv-x="5000" d="M162.79296875 2324.21875A2335.849609375 2335.849609375 0 0 1 829.78515625 855.966796875C1139.462890625 1129.404296875 1366.2792968749998 1684.3652343750005 1401.826171875 2324.21875zM1387.6953125 4004.150390625C1601.73828125 3641.787109375 1729.5800781249998 3175.41015625 1753.90625 2675.78125H2324.21875V4837.20703125A2331.58203125 2331.58203125 0 0 1 1096.259765625 4377.021484375A1703.0078125000002 1703.0078125000002 0 0 0 1387.6953125 4004.150390625zM829.7753906249999 4144.033203125A2335.849609375 2335.849609375 0 0 1 162.79296875 2675.78125H1401.81640625C1366.26953125 3315.634765625 1139.453125 3870.625 829.7753906249999 4144.033203125zM4170.224609375 855.966796875A2335.849609375 2335.849609375 0 0 1 4837.20703125 2324.21875H3598.18359375C3633.73046875 1684.365234375 3860.546875 1129.3750000000005 4170.224609375 855.966796875zM4837.20703125 2675.78125A2335.849609375 2335.849609375 0 0 1 4170.21484375 4144.033203125C3860.537109374999 3870.595703125 3633.720703124999 3315.634765625 3598.1738281249995 2675.78125zM3612.3046875 995.849609375C3398.2617187500005 1358.212890625 3270.419921875 1824.58984375 3246.09375 2324.21875H2675.78125V162.79296875A2331.58203125 2331.58203125 0 0 1 3903.740234375 622.978515625A1703.0078125000002 1703.0078125000002 0 0 0 3612.3046875 995.849609375zM3612.3046875 4004.150390625A1703.0078125000002 1703.0078125000002 0 0 0 3903.740234375 4377.021484375A2331.58203125 2331.58203125 0 0 1 2675.78125 4837.20703125V2675.78125H3246.09375C3270.419921875 3175.41015625 3398.2617187500005 3641.787109375 3612.3046875 4004.150390625zM1387.6953125 995.849609375A1703.0078125000002 1703.0078125000002 0 0 0 1096.259765625 622.978515625A2331.58203125 2331.58203125 0 0 1 2324.21875 162.79296875V2324.21875H1753.90625C1729.580078125 1824.58984375 1601.73828125 1358.212890625 1387.6953125 995.849609375z" />
    <glyph glyph-name="cis-bath"
      unicode="&#xEA57;"
      horiz-adv-x="5000" d="M4550.78125 2285.15625H800.78125V3847.65625A481.181640625 481.181640625 0 0 0 942.646484375 4190.146484375L946.5527343750002 4194.052734375A485.1953125 485.1953125 0 0 0 1495.1171875 4290.15625A772.4609375 772.4609375 0 0 1 1620.0097656249998 3363.49609375L1713.1347656249998 3270.361328125L1516.2890624999998 3073.515625L1764.8828124999995 2824.921875L3249.2578124999995 4309.296875L3000.703125 4557.890625L2803.857421875 4361.044921875L2710.7226562500005 4454.169921875A772.5097656250001 772.5097656250001 0 0 1 1742.5683593750002 4553.876953125A836.1132812499999 836.1132812499999 0 0 1 697.978515625 4442.666015625L694.0722656249999 4438.759765625A830.46875 830.46875 0 0 1 449.21875 3847.65625V2285.15625H156.25V1933.59375H449.21875V1653.3203125A253.330078125 253.330078125 0 0 1 462.2460937500001 1573.037109375L752.939453125 700.966796875A253.57421875 253.57421875 0 0 1 993.80859375 527.34375H1093.75L985.517578125 156.25H1351.728515625L1459.9609375 527.34375H3462.96875L3574.296875 156.25H3941.337890624999L3830.009765625 527.34375H4006.19140625A253.57421875 253.57421875 0 0 1 4247.0703125 700.95703125L4537.75390625 1572.9785156250005A253.486328125 253.486328125 0 0 1 4550.78125 1653.3203125V1933.59375H4843.75V2285.15625z" />
    <glyph glyph-name="cis-bathroom"
      unicode="&#xEA58;"
      horiz-adv-x="5000" d="M4550.78125 2285.15625H800.78125V3847.65625A481.181640625 481.181640625 0 0 0 942.646484375 4190.146484375L946.5527343750002 4194.052734375A485.1953125 485.1953125 0 0 0 1495.1171875 4290.15625A772.4609375 772.4609375 0 0 1 1620.0097656249998 3363.49609375L1713.1347656249998 3270.361328125L1516.2890624999998 3073.515625L1764.8828124999995 2824.921875L3249.2578124999995 4309.296875L3000.703125 4557.890625L2803.857421875 4361.044921875L2710.7226562500005 4454.169921875A772.5097656250001 772.5097656250001 0 0 1 1742.5683593750002 4553.876953125A836.1132812499999 836.1132812499999 0 0 1 697.978515625 4442.666015625L694.0722656249999 4438.759765625A830.46875 830.46875 0 0 1 449.21875 3847.65625V2285.15625H156.25V1933.59375H449.21875V1653.3203125A253.330078125 253.330078125 0 0 1 462.2460937500001 1573.037109375L752.939453125 700.966796875A253.57421875 253.57421875 0 0 1 993.80859375 527.34375H1093.75L985.517578125 156.25H1351.728515625L1459.9609375 527.34375H3462.96875L3574.296875 156.25H3941.337890624999L3830.009765625 527.34375H4006.19140625A253.57421875 253.57421875 0 0 1 4247.0703125 700.95703125L4537.75390625 1572.9785156250005A253.486328125 253.486328125 0 0 1 4550.78125 1653.3203125V1933.59375H4843.75V2285.15625z" />
    <glyph glyph-name="cis-battery-0"
      unicode="&#xEA59;"
      horiz-adv-x="5000" d="M4140.625 1562.5H4843.61328125V3437.5H4140.625V4140.625H156.25V859.375H4140.625zM3671.875 1562.5V1328.125H625V3671.875H3671.875V2968.75H4374.86328125V2031.25H3671.875z" />
    <glyph glyph-name="cis-battery-1"
      unicode="&#xEA5A;"
      horiz-adv-x="5000" d="M4140.625 4140.625H156.25V859.375H4140.625V1562.5H4843.61328125V3437.5H4140.625zM4374.86328125 2968.75V2031.25H3671.875V1328.125H1250V3671.875H3671.875V2968.75H4374.86328125z" />
    <glyph glyph-name="cis-battery-2"
      unicode="&#xEA5B;"
      horiz-adv-x="5000" d="M4140.625 1562.5H4843.61328125V3437.5H4140.625V4140.625H156.25V859.375H4140.625zM3671.875 1562.5V1328.125H1875V3671.875H3671.875V2968.75H4374.86328125V2031.25H3671.875z" />
    <glyph glyph-name="cis-battery-3"
      unicode="&#xEA5C;"
      horiz-adv-x="5000" d="M4140.625 1562.5H4843.61328125V3437.5H4140.625V4140.625H156.25V859.375H4140.625zM3671.875 1562.5V1328.125H2500V3671.875H3671.875V2968.75H4374.86328125V2031.25H3671.875z" />
    <glyph glyph-name="cis-battery-4"
      unicode="&#xEA5D;"
      horiz-adv-x="5000" d="M4140.625 4140.625H156.25V859.375H4140.625V1562.5H4843.61328125V3437.5H4140.625zM4374.86328125 2968.75V2031.25H3671.875V1328.125H3125V3671.875H3671.875V2968.75H4374.86328125z" />
    <glyph glyph-name="cis-battery-5"
      unicode="&#xEA5E;"
      horiz-adv-x="5000" d="M4140.625 1562.5L4843.61328125 1562.5L4843.61328125 3437.5L4140.625 3437.5L4140.625 4140.625L156.25 4140.625L156.25 859.375L4140.625 859.375L4140.625 1562.5z" />
    <glyph glyph-name="cis-battery-alert"
      unicode="&#xEA5F;"
      horiz-adv-x="5000" d="M4140.625 3437.5L4140.625 4140.625L2343.75 4140.625L2343.75 3671.875L3671.875 3671.875L3671.875 3437.5L3671.875 2968.75L4140.625 2968.75L4374.86328125 2968.75L4374.86328125 2031.25L4140.625 2031.25L3671.875 2031.25L3671.875 1562.5L3671.875 1328.125L625 1328.125L625 3671.875L1093.75 3671.875L1093.75 4140.625L156.25 4140.625L156.25 859.375L4140.625 859.375L4140.625 1562.5L4843.61328125 1562.5L4843.61328125 3437.5L4140.625 3437.5zM1523.4375 2031.25L1523.4375 2008.92578125L1914.0625 2008.92578125L1914.0625 2031.25L1914.0625 2399.55078125L1523.4375 2399.55078125L1523.4375 2031.25zM1894.53125 2633.92578125L1953.125 3359.375L1953.125 4140.625L1484.375 4140.625L1484.375 3359.375L1542.96875 2633.92578125L1894.53125 2633.92578125z" />
    <glyph glyph-name="cis-battery-alt-0"
      unicode="&#xEA60;"
      horiz-adv-x="5000" d="M4140.625 3437.5V4140.625H156.25V859.375H4140.625V1562.5H4843.61328125V3437.5zM3671.875 3437.5V1328.125H625V3671.875H3671.875z" />
    <glyph glyph-name="cis-battery-alt-1"
      unicode="&#xEA61;"
      horiz-adv-x="5000" d="M4140.625 3437.5V4140.625H156.25V859.375H4140.625V1562.5H4843.61328125V3437.5zM3671.875 3437.5V1328.125H625V3671.875H3671.875zM937.5 3359.375H1406.25V1640.625H937.5V3359.375z" />
    <glyph glyph-name="cis-battery-alt-2"
      unicode="&#xEA62;"
      horiz-adv-x="5000" d="M4140.625 3437.5V4140.625H156.25V859.375H4140.625V1562.5H4843.61328125V3437.5zM3671.875 3437.5V1328.125H625V3671.875H3671.875zM937.5 3359.375H1406.25V1640.625H937.5V3359.375zM1875 3359.375H2343.75V1640.625H1875V3359.375z" />
    <glyph glyph-name="cis-battery-alt-3"
      unicode="&#xEA63;"
      horiz-adv-x="5000" d="M4140.625 3437.5V4140.625H156.25V859.375H4140.625V1562.5H4843.61328125V3437.5zM3671.875 3437.5V1328.125H625V3671.875H3671.875zM937.5 3359.375H1406.25V1640.625H937.5V3359.375zM1875 3359.375H2343.75V1640.625H1875V3359.375zM2812.5 3359.375H3281.25V1640.625H2812.5V3359.375z" />
    <glyph glyph-name="cis-battery-alt-empty"
      unicode="&#xEA64;"
      horiz-adv-x="5000" d="M4140.625 3437.5V4140.625H156.25V859.375H4140.625V1562.5H4843.61328125V3437.5zM3671.875 3437.5V1328.125H625V3671.875H3671.875z" />
    <glyph glyph-name="cis-battery-alt-full"
      unicode="&#xEA65;"
      horiz-adv-x="5000" d="M4140.625 3437.5V4140.625H156.25V859.375H4140.625V1562.5H4843.61328125V3437.5zM3671.875 3437.5V1328.125H625V3671.875H3671.875zM937.5 3359.375H1406.25V1640.625H937.5V3359.375zM1875 3359.375H2343.75V1640.625H1875V3359.375zM2812.5 3359.375H3281.25V1640.625H2812.5V3359.375z" />
    <glyph glyph-name="cis-battery-alt-slash"
      unicode="&#xEA66;"
      horiz-adv-x="5000" d="M3671.875 3671.875L3671.875 3437.5L3671.875 2968.75L3671.875 2118.857421875L4228.232421875 1562.5L4843.61328125 1562.5L4843.61328125 3437.5L4140.625 3437.5L4140.625 4140.625L1648.193359375 4140.625L2117.568359375 3671.875L3671.875 3671.875zM446.3769531250001 4843.75H156.25V4556.42578125L572.05078125 4140.625H156.25V859.375H3853.300781249999L4556.42578125 156.25H4843.75V444.755859375zM625 1328.125V3671.875H1040.80078125L3384.5507812499995 1328.125z" />
    <glyph glyph-name="cis-battery-charge"
      unicode="&#xEA67;"
      horiz-adv-x="5000" d="M4140.625 4140.625H156.25V859.375H4140.625V1562.5H4843.61328125V3437.5H4140.625zM2382.470703125 1406.25H1888.330078125L2174.8046875 2265.625H1542.421875L1988.8476562499995 3515.625H2484.375L2486.328125 3514.921875L2207.578125 2734.375H2825.1953125z" />
    <glyph glyph-name="cis-battery-empty"
      unicode="&#xEA68;"
      horiz-adv-x="5000" d="M4140.625 1562.5H4843.61328125V3437.5H4140.625V4140.625H156.25V859.375H4140.625zM3671.875 1562.5V1328.125H625V3671.875H3671.875V2968.75H4374.86328125V2031.25H3671.875z" />
    <glyph glyph-name="cis-battery-full"
      unicode="&#xEA69;"
      horiz-adv-x="5000" d="M4140.625 1562.5L4843.61328125 1562.5L4843.61328125 3437.5L4140.625 3437.5L4140.625 4140.625L156.25 4140.625L156.25 859.375L4140.625 859.375L4140.625 1562.5z" />
    <glyph glyph-name="cis-battery-slash"
      unicode="&#xEA6A;"
      horiz-adv-x="5000" d="M3671.875 3671.875L3671.875 3437.5L3671.875 2968.75L4140.625 2968.75L4374.86328125 2968.75L4374.86328125 2031.25L4140.625 2031.25L3759.482421875 2031.25L4228.232421875 1562.5L4843.61328125 1562.5L4843.61328125 3437.5L4140.625 3437.5L4140.625 4140.625L1648.193359375 4140.625L2117.568359375 3671.875L3671.875 3671.875zM446.3769531250001 4843.75H156.25V4556.42578125L572.05078125 4140.625H156.25V859.375H3853.291015625L4556.416015625 156.25H4843.75V444.755859375zM625 1328.125V3671.875H1040.80078125L3384.5507812499995 1328.125z" />
    <glyph glyph-name="cis-battery-unknown"
      unicode="&#xEA6B;"
      horiz-adv-x="5000" d="M4140.625 3437.5L4140.625 4140.625L3437.5 4140.625L3437.5 3671.875L3671.875 3671.875L3671.875 3437.5L3671.875 2968.75L4140.625 2968.75L4374.86328125 2968.75L4374.86328125 2031.25L4140.625 2031.25L3671.875 2031.25L3671.875 1562.5L3671.875 1328.125L625 1328.125L625 3671.875L1328.125 3671.875L1328.125 4140.625L156.25 4140.625L156.25 859.375L4140.625 859.375L4140.625 1562.5L4843.61328125 1562.5L4843.61328125 3437.5L4140.625 3437.5zM2763.671875 3671.875A420.400390625 420.400390625 0 0 0 2343.75 3251.953125H2031.25A361.73828125 361.73828125 0 0 1 1669.921875 2890.625V2343.75H2080.078125V2841.796875H2343.75A826.435546875 826.435546875 0 0 1 2890.625 3048.193359375A835.087890625 835.087890625 0 0 1 3075.908203125 3281.25A830.5078125 830.5078125 0 0 1 2343.75 4501.953125H1640.625V4091.796875H2343.75A420.400390625 420.400390625 0 0 0 2763.671875 3671.875zM1669.921875 2046.875L1669.921875 1882.8125L1669.921875 1718.75L1998.046875 1718.75L2080.078125 1718.75L2080.078125 1882.8125L2080.078125 2128.90625L1669.921875 2128.90625L1669.921875 2046.875z" />
    <glyph glyph-name="cis-beach-access"
      unicode="&#xEA6C;"
      horiz-adv-x="5000" d="M2568.037109375 2409.4921875000005L2979.638671875 2821.0937500000005A4887.568359375001 4887.568359375001 0 0 1 2444.0234375 3251.38671875C1732.177734375 3744.375 1134.619140625 4033.544921875 794.921875 4054.931640625C792.12890625 4052.294921875 789.3164062500001 4049.697265625 786.5332031250001 4047.041015625C773.4667968750001 3427.0703125 1222.8808593750002 2642.9785156249995 1506.7578125000002 2211.3671874999995A3791.357421875 3791.357421875 0 0 1 1885.5859375000005 1726.9921874999995L2278.0078125000005 2119.414062499999L3850.5859375 546.875H4430.6640625zM2644.1796875 3540.41015625A5242.460937499999 5242.460937499999 0 0 0 3228.4179687500005 3069.873046875L3900.693359375 3742.1875L3629.355468749999 4013.525390625A2036.58203125 2036.58203125 0 0 1 1169.921875 4335.556640625C1311.455078125 4291.787109375 1467.6953125 4228.02734375 1639.755859375 4143.96484375C2012.8125 3961.689453125 2391.875 3715.13671875 2644.1796875 3540.41015625zM664.21875 3032.998046875Q525.595703125 3369.326171875 470.703125 3662.822265625A2036.3671875 2036.3671875 0 0 1 752.138671875 1136.26953125L1023.4375 864.931640625L1636.71875 1478.2128906250005A4146.162109375 4146.162109375 0 0 0 1212.98828125 2018.1640625000005C1053.505859375 2260.7421875 828.7890625 2633.662109375 664.21875 3032.998046875z" />
    <glyph glyph-name="cis-beaker"
      unicode="&#xEA6D;"
      horiz-adv-x="5000" d="M4531.25 1577.451171875A311.162109375 311.162109375 0 0 1 4476.07421875 1754.658203125L3437.5 3224.091796875V3515.625H3750A312.8515625 312.8515625 0 0 1 4062.5 3828.125V4843.75H937.5V3828.125A312.8515625 312.8515625 0 0 1 1250 3515.625H1561.689453125V3213.65234375L526.0546875 1757.412109375L524.47265625 1755.166015625A311.0546875 311.0546875 0 0 1 468.75 1577.060546875V703.798828125A547.51953125 547.51953125 0 0 1 1015.498046875 156.923828125L3984.560546875 156.25H3984.6875A546.875 546.875 0 0 1 4531.5625 703.310546875zM2030.439453125 3063.96484375V3984.375H1406.25V4375H3593.75V3984.375H2968.75V3075.1953125L3589.2578125 2197.265625H1414.0625z" />
    <glyph glyph-name="cis-bed"
      unicode="&#xEA6E;"
      horiz-adv-x="5000" d="M4218.75 2740.419921875H2109.375V1582.03125H4843.75V2115.4199218750005A625 625 0 0 1 4218.75 2740.419921875zM1796.875 2119.140625A699.3847656250001 699.3847656250001 0 0 1 1097.490234375 2818.525390625H625V3515.625H156.25V1582.03125H1796.875zM156.25 156.25L625 156.25L625 703.125L4375 703.125L4375 156.25L4843.75 156.25L4843.75 1230.46875L156.25 1230.46875L156.25 156.25z" />
    <glyph glyph-name="cis-bell"
      unicode="&#xEA6F;"
      horiz-adv-x="5000" d="M4273.4375 1599.70703125L3828.125 2421.875V3281.25A1328.125 1328.125 0 0 1 1171.875 3281.25V2421.875L726.5625 1599.70703125A78.125 78.125 0 0 1 795.234375 1484.375H4204.765625A78.125 78.125 0 0 1 4273.4375 1599.70703125zM2500 468.75A703.125 703.125 0 0 1 3203.125 1171.875H1796.875A703.125 703.125 0 0 1 2500 468.75z" />
    <glyph glyph-name="cis-bell-exclamation"
      unicode="&#xEA70;"
      horiz-adv-x="5000" d="M4273.4375 1599.70703125L3828.125 2421.875V3281.25A1328.125 1328.125 0 0 1 1171.875 3281.25V2421.875L726.5625 1599.70703125A78.125 78.125 0 0 1 795.234375 1484.375H4204.765625A78.125 78.125 0 0 1 4273.4375 1599.70703125zM2675.78125 2031.25H2324.21875V2421.875H2675.78125zM2675.78125 2734.375H2324.21875V3828.125H2675.78125zM2500 468.75A703.125 703.125 0 0 1 3203.125 1171.875H1796.875A703.125 703.125 0 0 1 2500 468.75z" />
    <glyph glyph-name="cis-bell-plus"
      unicode="&#xEA71;"
      horiz-adv-x="5000" d="M4273.4375 1599.70703125L3828.125 2421.875V3281.25A1328.125 1328.125 0 0 1 1171.875 3281.25V2421.875L726.5625 1599.70703125A78.125 78.125 0 0 1 795.234375 1484.375H4204.765625A78.125 78.125 0 0 1 4273.4375 1599.70703125zM3203.125 2832.03125H2675.78125V2304.6875H2324.21875V2832.03125H1796.875V3183.59375H2324.21875V3710.9375H2675.78125V3183.59375H3203.125zM2500 468.75A703.125 703.125 0 0 1 3203.125 1171.875H1796.875A703.125 703.125 0 0 1 2500 468.75z" />
    <glyph glyph-name="cis-bell-ring"
      unicode="&#xEA72;"
      horiz-adv-x="5000" d="M4257.8125 3164.0625H4726.5625A2223.193359375 2223.193359375 0 0 1 3934.921875 4866.650390625L3632.67578125 4508.349609375A1755.390625 1755.390625 0 0 0 4257.8125 3164.0625zM1367.32421875 4508.349609375L1065.078125 4866.650390625A2223.193359375 2223.193359375 0 0 1 273.4375 3164.0625H742.1875A1755.390625 1755.390625 0 0 0 1367.32421875 4508.349609375zM3828.125 2421.875V3281.25A1328.125 1328.125 0 0 1 2500 4609.375H2500A1328.125 1328.125 0 0 1 1171.875 3281.25V2421.875L726.5625 1599.70703125A78.125 78.125 0 0 1 795.234375 1484.375H4204.765625A78.125 78.125 0 0 1 4273.466796875 1599.70703125zM2500 468.75A703.125 703.125 0 0 1 3203.125 1171.875H1796.875A703.125 703.125 0 0 1 2500 468.75z" />
    <glyph glyph-name="cis-bell-slash"
      unicode="&#xEA73;"
      horiz-adv-x="5000" d="M3091.484375 2699.21875L4270.400390625 1520.33203125A77.36328125 77.36328125 0 0 1 4273.466796875 1599.70703125L3828.125 2421.875V3281.25A1328.125 1328.125 0 0 1 2500 4609.375H2500A1323.779296875 1323.779296875 0 0 1 1565.673828125 4225.05859375L3091.484375 2699.21875zM2500 468.75A703.125 703.125 0 0 1 3203.125 1171.875H1796.875A703.125 703.125 0 0 1 2500 468.75zM3809.169921875001 1484.375L448.984375 4843.75H156.25V4556.42578125L1193.212890625 3519.462890625A1336.103515625 1336.103515625 0 0 1 1171.875 3281.25V2421.875L726.5625 1599.70703125A78.125 78.125 0 0 1 795.234375 1484.375H3228.3007812499995L4556.42578125 156.25H4843.75V449.794921875z" />
    <glyph glyph-name="cis-bike"
      unicode="&#xEA74;"
      horiz-adv-x="5000" d="M156.25 1406.25A976.5625 976.5625 0 0 1 2109.375 1406.25A976.5625 976.5625 0 0 1 156.25 1406.25M2890.625 1406.25A976.5625 976.5625 0 0 1 4843.75 1406.25A976.5625 976.5625 0 0 1 2890.625 1406.25M2812.5 4101.5625A351.5625 351.5625 0 0 1 3515.625 4101.5625A351.5625 351.5625 0 0 1 2812.5 4101.5625M3266.767578125 2654.74609375L3267.8125000000005 2653.671875A284.814453125 284.814453125 0 0 1 3470.4003906250005 2568.359375H3906.25V2978.515625H3524.4140625L2532.646484375 4008.7890625L1384.375 2858.212890625L2294.921875 1908.447265625V1054.6875H2705.078125V1959.5214843749995A285.048828125 285.048828125 0 0 1 2623.447265625 2158.447265625L2161.2109375 2640.625L2731.4453125 3210.830078125z" />
    <glyph glyph-name="cis-bike-alt"
      unicode="&#xEA75;"
      horiz-adv-x="5000" d="M3867.1875 2890.625A982.978515625 982.978515625 0 0 1 3760.185546875 2884.765625L3248.876953125 4316.40625H2421.875V3964.84375H3001.123046875L3266.1914062499995 3222.65625H1851.337890625L1795.537109375 3417.96875H2109.375V3769.53125H1093.75V3417.96875H1429.90234375L1530.21484375 3066.9140625L1414.1308593749998 2849.2578125A978.935546875 978.935546875 0 1 1 1726.884765625 2688.583984375L1824.21875 2871.09375H3375.439453125L3408.388671875 2775.91796875A976.23046875 976.23046875 0 1 1 3867.1875 2890.625zM1406.25 1914.0625A273.4375 273.4375 0 1 0 1378.18359375 2034.765625A273.4375 273.4375 0 0 0 1406.25 1914.0625zM3867.1875 1640.625A273.4375 273.4375 0 1 0 4140.625 1914.0625A273.4375 273.4375 0 0 0 3867.1875 1640.625z" />
    <glyph glyph-name="cis-birthday-cake"
      unicode="&#xEA76;"
      horiz-adv-x="5000" d="M4150.390625 1308.740234375A693.9550781250001 693.9550781250001 0 0 0 3870.234375 1367.6464843749995L3613.28125 1481.015625L3356.30859375 1367.6464843750005A695.5859375 695.5859375 0 0 0 2796.0156249999995 1367.6464843750005L2539.0625 1481.015625L2282.12890625 1367.65625A695.4882812500001 695.4882812500001 0 0 0 1721.826171875 1367.65625L1464.84375 1481.015625L1207.900390625 1367.65625A695.5078124999999 695.5078124999999 0 0 0 647.607421875 1367.65625L468.75 1446.552734375V312.5A156.25 156.25 0 0 1 625 156.25H4375A156.25 156.25 0 0 1 4531.25 312.5V1412.109375L4430.458984375 1367.6464843750005A694.2578125000001 694.2578125000001 0 0 0 4150.390625 1308.740234375zM4121.09375 2597.65625H2890.625V3828.125H2503.22265625C2626.396484375 3940.615234375 2705.6054687499995 4115.234375 2705.6054687499995 4311.5234375C2705.6054687499995 4539.013671875 2599.2578125 4737.490234375 2441.2988281249995 4843.75C2283.3496093749995 4737.48046875 2177.001953125 4539.00390625 2177.001953125 4311.5234375C2177.001953125 4115.234375 2256.2109374999995 3940.625 2379.3847656249995 3828.125H1953.125V2597.65625H878.90625A410.1562500000001 410.1562500000001 0 0 1 468.75 2187.5V1830.810546875L789.4921874999999 1689.2968750000005A343.3203125 343.3203125 0 0 1 1065.9765625 1689.2968750000005L1464.84375 1865.234375L1863.7109375 1689.2578125A343.28125 343.28125 0 0 1 2140.1953125 1689.2578125L2539.0625 1865.234375L2937.91015625 1689.2578125A343.3203125 343.3203125 0 0 1 3214.39453125 1689.2578125L3613.28125 1865.234375L4012.1484375 1689.2578125A343.232421875 343.232421875 0 0 1 4288.61328125 1689.2578125L4531.25 1796.3476562500005V2187.5A410.1562500000001 410.1562500000001 0 0 1 4121.09375 2597.65625z" />
    <glyph glyph-name="cis-blind"
      unicode="&#xEA77;"
      horiz-adv-x="5000" d="M3144.365234375 2398.4375L4036.1328125 362.021484375H4291.9921875L3350.0195312499995 2513.06640625L3527.20703125 2674.140625L2495.283203125 3809.2578125H1594.462890625L1252.2363281249998 3587.021484375A667.353515625 667.353515625 0 0 1 947.265625 3025.390625V2324.21875H1416.015625V3025.390625A200.25390625 200.25390625 0 0 0 1507.51953125 3193.92578125L1650.390625 3286.69921875V2522.3144531250005L2001.09375 1827.763671875L2741.2109375 362.021484375H3168.61328125L2360.48828125 2102.5390625V3260.7421875zM909.9609375000002 362.021484375L1414.814453125 362.021484375L1914.052734375 1610.1171874999995L1632.353515625 2168.0078125L909.9609375000002 362.021484375zM1832.861328125 4054.091796875A371.9433593750001 371.9433593750001 0 1 1 1650.390625 4374.140625A370.1171875 370.1171875 0 0 1 1832.861328125 4054.091796875z" />
    <glyph glyph-name="cis-bluetooth"
      unicode="&#xEA78;"
      horiz-adv-x="5000" d="M1865.05859375 2492.24609375L1093.75 1994.375V1293.7890625L1113.486328125 1263.212890625L2109.375 1906.0546875V156.25H2653.671875L4219.00390625 1242.958984375L4218.261718749999 1716.337890625L3017.24609375 2492.0703125L4218.1640625 3267.24609375L4218.251953125 3732.412109375L2632.236328125 4844.00390625L2109.375 4843.37890625V3078.4765625L1107.05078125 3725.87890625L1093.75 3705.283203125V2990.439453125zM2734.375 4009.19921875L3444.3359375 3511.630859375L2734.375 3053.37890625zM2734.375 1930.7421874999995L3448.9453125000005 1469.1992187499995L2734.375 973.115234375z" />
    <glyph glyph-name="cis-bluetooth-connected"
      unicode="&#xEA79;"
      horiz-adv-x="5000" d="M1786.220703125 2496.50390625L859.375 1900.5761718750005V1157.5292968750005L2031.25 1911.0058593750005V156.25H2575.546875L4140.87890625 1242.958984375L4140.136718749999 1716.044921875L2938.720703125 2494.482421875L4140.0390625 3266.89453125L4140.126953125 3732.412109375L2554.111328125 4844.00390625L2031.25 4843.37890625V3082.470703125L859.375 3841.796875V3097.0703125zM2656.25 4009.19921875L3365.625 3512.01171875L2656.25 3055.908203125zM2656.25 1932.7832031250005L3371.259765625 1469.51171875L2656.25 973.115234375zM859.375 2786.787109375L468.75 3021.142578125L468.75 1989.9609375L859.375 2224.31640625L1328.125 2505.556640625L859.375 2786.787109375zM4296.875 1989.9609375L4296.875 3021.142578125L3437.5 2505.556640625L4296.875 1989.9609375z" />
    <glyph glyph-name="cis-bluetooth-searching"
      unicode="&#xEA7A;"
      horiz-adv-x="5000" d="M3840.654296875 1958.0078125A1093.75 1093.75 0 0 1 3825.537109375 3067.63671875L2890.625 2500zM4146.015625 1783.818359375L4587.099609375 1532.2265625A1953.125 1953.125 0 0 1 4560.107421875 3513.671875L4126.03515625 3250.1171875A1445.3125 1445.3125 0 0 0 4146.015625 1783.818359375zM1161.93359375 2492.1875L390.625 1994.365234375V1293.798828125L410.361328125 1263.212890625L1406.25 1906.0449218749995V156.25L1950.546875 156.25L3515.8789062499995 1242.958984375L3515.1367187499995 1716.337890625L3214.84375 1910.283203125L2314.1113281249995 2492.0703125L3515.0097656249995 3267.24609375V3290.4199218749995L3515.1074218749995 3732.40234375L1929.111328125 4844.00390625L1406.25 4843.37890625V3078.466796875L403.92578125 3725.869140625L390.625 3705.2734375V2990.4296875zM2031.25 4009.19921875L2741.2109375 3511.62109375L2031.25 3053.37890625zM2031.25 1930.7421874999995L2745.830078125 1469.1992187499995L2031.25 973.115234375z" />
    <glyph glyph-name="cis-bluetooth-settings"
      unicode="&#xEA7B;"
      horiz-adv-x="5000" d="M1748.115234375 2923.583984375L1171.875 2551.630859375V1993.7109375L1930.5957031249995 2483.45703125V1093.75H2343.9746093749995L3569.931640625 1944.84375L3569.365234375 2305.25390625L2612.255859375 2923.41796875L3569.287109375 3541.171875L3569.3457031249995 3895.126953125L2327.060546875 4765.849609375L1930.576171875 4765.380859375V3363.740234375L1171.875 3853.798828125V3295.78125zM2399.345703125 4142.763671875L2992.6562500000005 3726.93359375L2399.3457031250005 3343.955078125zM2399.345703125 2502.94921875L2996.396484375 2117.314453125L2399.345703125 1702.8222656249995zM1015.625 468.75A312.5 312.5 0 0 1 1640.625 468.75A312.5 312.5 0 0 1 1015.625 468.75M2031.25 468.75A312.5 312.5 0 0 1 2656.25 468.75A312.5 312.5 0 0 1 2031.25 468.75M3046.875 468.75A312.5 312.5 0 0 1 3671.875 468.75A312.5 312.5 0 0 1 3046.875 468.75" />
    <glyph glyph-name="cis-bluetooth-slash"
      unicode="&#xEA7C;"
      horiz-adv-x="5000" d="M2578.125 4009.19921875L3288.0468750000005 3511.630859375L2674.560546875 3115.625L3091.474609375 2699.248046875L3091.484375 2699.248046875L3126.97265625 2663.759765625L4061.904296875 3267.24609375L4062.01171875 3732.40234375L2475.986328125 4844.00390625L1953.125 4843.37890625L1953.125 3836.09375L2578.125 3211.923828125L2578.125 4009.19921875zM4843.75 444.755859375L446.3769531250001 4843.75H156.25V4556.42578125L601.34765625 4111.328125L937.5 3775.17578125L1953.125 2759.55078125V2649.94140625L937.5 1994.375V1293.798828125L957.236328125 1263.212890625L1953.125 1906.0449218749995V156.25H2497.421875L3712.724609375 999.951171875L4556.42578125 156.25H4843.75zM2578.125 973.0761718750005V1944.453125L3136.5624999999995 1576.11328125L3263.671875 1449.0332031249995z" />
    <glyph glyph-name="cis-blur"
      unicode="&#xEA7D;"
      horiz-adv-x="5000" d="M229.5117187500001 2418.84765625A624.892578125 624.892578125 0 0 1 1479.296875 2418.84765625A624.892578125 624.892578125 0 0 1 229.5117187500001 2418.84765625M229.5117187500001 3981.513671875A624.892578125 624.892578125 0 0 1 1479.296875 3981.513671875A624.892578125 624.892578125 0 0 1 229.5117187500001 3981.513671875M219.74609375 856.181640625A624.892578125 624.892578125 0 0 1 1469.53125 856.181640625A624.892578125 624.892578125 0 0 1 219.74609375 856.181640625M2187.5 3984.375A468.7500000000001 468.7500000000001 0 0 1 3125 3984.375A468.7500000000001 468.7500000000001 0 0 1 2187.5 3984.375M3828.125 3984.375A312.5 312.5 0 0 1 4453.125 3984.375A312.5 312.5 0 0 1 3828.125 3984.375M3828.125 2421.875A312.5 312.5 0 0 1 4453.125 2421.875A312.5 312.5 0 0 1 3828.125 2421.875M3828.125 859.375A312.5 312.5 0 0 1 4453.125 859.375A312.5 312.5 0 0 1 3828.125 859.375M2187.5 859.375A468.7500000000001 468.7500000000001 0 0 1 3125 859.375A468.7500000000001 468.7500000000001 0 0 1 2187.5 859.375M2187.5 2421.875A468.7500000000001 468.7500000000001 0 0 1 3125 2421.875A468.7500000000001 468.7500000000001 0 0 1 2187.5 2421.875" />
    <glyph glyph-name="cis-blur-circular"
      unicode="&#xEA7E;"
      horiz-adv-x="5000" d="M2500 136.71875A2363.2812500000005 2363.2812500000005 0 0 1 4171.09375 4171.09375A2363.2812500000005 2363.2812500000005 0 0 1 828.90625 828.90625A2347.802734375 2347.802734375 0 0 1 2500 136.71875zM2138.14453125 1704.9609375A296.416015625 296.416015625 0 1 0 2138.14453125 2124.1503906250005A296.416015625 296.416015625 0 0 0 2138.14453125 1704.9609375zM2217.96875 961.9140625A289.4238281250001 289.4238281250001 0 1 0 1928.544921875 1251.337890625A289.4238281250001 289.4238281250001 0 0 0 2217.96875 961.9140625zM2138.14453125 2875.849609375A296.416015625 296.416015625 0 1 0 2138.14453125 3295.0390625A296.416015625 296.416015625 0 0 0 2138.14453125 2875.849609375zM1639.12109375 4038.0859375A289.4238281250001 289.4238281250001 0 1 0 1928.544921875 3748.662109375A289.4238281250001 289.4238281250001 0 0 0 1639.12109375 4038.0859375zM1251.337890625 3071.455078125A289.4238281250001 289.4238281250001 0 1 0 961.9140625 3360.87890625A289.4238281250001 289.4238281250001 0 0 0 1251.337890625 3071.455078125zM961.9140625 2217.96875A289.4238281250001 289.4238281250001 0 1 0 672.490234375 1928.544921875A289.4238281250001 289.4238281250001 0 0 0 961.9140625 2217.96875zM4327.509765625 3071.484375A289.4238281250001 289.4238281250001 0 1 0 4038.0859375 3360.87890625A289.4238281250001 289.4238281250001 0 0 0 4327.509765625 3071.455078125zM2861.8554687499995 3295.1171875A296.416015625 296.416015625 0 1 0 2861.8554687499995 2875.927734375A296.416015625 296.416015625 0 0 0 2861.8554687499995 3295.0390625zM2782.03125 4038.0859375A289.4238281250001 289.4238281250001 0 1 0 3071.455078125 3748.662109375A289.4238281250001 289.4238281250001 0 0 0 2782.03125 4038.0859375zM2861.8554687499995 2124.1503906250005A296.416015625 296.416015625 0 1 0 2861.8554687499995 1704.9609375A296.416015625 296.416015625 0 0 0 2861.8554687499995 2124.150390625zM3360.87890625 961.9140625A289.4238281250001 289.4238281250001 0 1 0 3071.455078125 1251.337890625A289.4238281250001 289.4238281250001 0 0 0 3360.87890625 961.9140625zM3748.662109375 1928.544921875A289.4238281250001 289.4238281250001 0 1 0 4038.0859375 1639.12109375A289.4238281250001 289.4238281250001 0 0 0 3748.662109375 1928.544921875z" />
    <glyph glyph-name="cis-blur-linear"
      unicode="&#xEA7F;"
      horiz-adv-x="5000" d="M156.25 4843.75H4843.75V4531.25H156.25V4843.75zM156.25 468.75H4843.75V156.25H156.25V468.75zM191.2646474194048 3162.361554007209A716.5039062500001 716.5039062500001 0 0 1 1515.1912353169264 3710.7499023006985A716.5039062500001 716.5039062500001 0 0 1 191.2646474194048 3162.361554007209M2678.818359375 2720.048828125A600.263671875 600.263671875 0 1 1 2078.544921875 3320.3125A600.9375 600.9375 0 0 1 2678.818359375 2720.048828125zM4253.0859375 2720.048828125A465.205078125 465.205078125 0 1 1 3787.880859375 3185.244140625A465.72265625 465.72265625 0 0 1 4253.0859375 2720.048828125zM149.6739782703587 1388.146107602342A716.5039062500001 716.5039062500001 0 0 1 1556.8237554922298 1659.1459141529604A716.5039062500001 716.5039062500001 0 0 1 149.6739782703587 1388.146107602342M2678.818359375 1039.619140625A600.2734375 600.2734375 0 1 1 2078.5449218749995 1639.8828125A600.9375 600.9375 0 0 1 2678.818359375 1039.619140625zM4253.0859375 1309.74609375A465.205078125 465.205078125 0 1 1 3787.880859375 1774.951171875A465.732421875 465.732421875 0 0 1 4253.0859375 1309.74609375z" />
    </font>
</defs>
</svg>
