<?xml version="1.0" standalone="no"?>
<!DOCTYPE svg PUBLIC "-//W3C//DTD SVG 1.1//EN" "http://www.w3.org/Graphics/SVG/1.1/DTD/svg11.dtd" >
<svg xmlns="http://www.w3.org/2000/svg">
<defs>
  <font id="CoreUI-Icons-Linear" horiz-adv-x="5000">
    <font-face font-family="CoreUI-Icons-Linear"
      units-per-em="5000" ascent="5000"
      descent="0" />
    <missing-glyph horiz-adv-x="0" />
    <glyph glyph-name="cil-3d"
      unicode="&#xEA01;"
      horiz-adv-x="5000" d="M673.662109375 1263.26171875L2347.001953125 297.16796875A313.3007812500001 313.3007812500001 0 0 1 2659.5019531249995 297.16796875L4332.861328124999 1263.2714843750005A313.4082031250001 313.4082031250001 0 0 1 4489.111328124999 1533.9062500000005V3466.103515625A313.3984375 313.3984375 0 0 1 4332.861328124999 3736.73828125L2659.51171875 4702.841796875A313.33984375 313.33984375 0 0 1 2347.01171875 4702.841796875L673.662109375 3736.73828125A313.37890625 313.37890625 0 0 1 517.412109375 3466.103515625V1533.8964843750005A313.37890625 313.37890625 0 0 1 673.662109375 1263.26171875zM2659.5019531250005 4341.9921875L4176.6015625 3466.103515625V1733.896484375L2659.5019531250005 2591.38671875zM2502.75390625 2321.025390625L4037.470703125 1453.5644531250005L2503.291015625 567.822265625L968.544921875 1453.857421875zM829.912109375 3466.103515625L2347.001953125 4341.9921875V2591.9921875L829.912109375 1734.47265625z" />
    <glyph glyph-name="cil-3d-rotate"
      unicode="&#xEA02;"
      horiz-adv-x="5000" d="M2620.29296875 3760.99609375A235.0390625000001 235.0390625000001 0 0 1 2385.91796875 3760.99609375L1419.04296875 3202.734375A235.009765625 235.009765625 0 0 1 1301.85546875 2999.765625V1883.271484375A235.01953125 235.01953125 0 0 1 1419.04296875 1680.2929687499995L2385.9375 1122.0703125A235.01953125 235.01953125 0 0 1 2620.3125 1122.0703125L3587.2265625 1680.322265625A235.0390625000001 235.0390625000001 0 0 1 3704.4140625 1883.291015625V2999.765625A235.029296875 235.029296875 0 0 1 3587.2265625 3202.734375zM3391.9140625 2136.279296875L2659.3164062499995 2550.341796875V3377.6171875L3391.9140625 2954.658203125zM1614.35546875 2954.638671875L2346.77734375 3377.490234375V2550.595703125L1614.35546875 2136.5917968750005zM2503.1347656250005 1415.224609375L1746.2402343750002 1852.2167968749995L2502.8027343750005 2279.8437499999995L3259.697265625 1852.0214843749995zM2503.1347656250005 4524.35546875V4116.552734375L3593.75 4844.091796875H2503.1347656250005L2500 4843.75C1877.1191406249995 4842.83203125 1294.7851562500002 4592.978515625 854.248046875 4152.44140625A2321.6015625 2321.6015625 0 0 1 169.78515625 2500H482.2851562499999C482.28515625 3615.078125 1388.505859375 4522.4609375 2503.1347656250005 4524.35546875zM2499.873046875 781.25L1409.2578125 156.25H2499.873046875C3792.841796875 159.765625 4843.623046875 1213.02734375 4843.623046875 2499.6582031250005H4531.123046875C4531.123046875 1385.3417968750005 3620.537109374999 478.4472656250009 2499.8730468749995 474.931640625z" />
    <glyph glyph-name="cil-4k"
      unicode="&#xEA03;"
      horiz-adv-x="5000" d="M2031.25 3203.125L1718.75 3203.125L1718.75 2343.75L1110.15625 2343.75L1242.96875 3671.875L928.90625 3671.875L764.8437499999999 2031.25L1718.75 2031.25L1718.75 1328.125L2031.25 1328.125L2031.25 2031.25L2343.75 2031.25L2343.75 2343.75L2031.25 2343.75L2031.25 3203.125zM3770.615234375 3671.875L3262.802734375 2656.25L2968.75 2656.25L2968.75 3671.875L2656.25 3671.875L2656.25 1328.125L2968.75 1328.125L2968.75 2343.75L3262.802734375 2343.75L3770.615234375 1328.125L4120.009765625 1328.125L3534.072265625 2500L4120.009765625 3671.875L3770.615234375 3671.875zM4531.25 4843.75H468.75A312.8515625 312.8515625 0 0 1 156.25 4531.25V468.75A312.8515625 312.8515625 0 0 1 468.75 156.25H4531.25A312.8515625 312.8515625 0 0 1 4843.75 468.75V4531.25A312.8515625 312.8515625 0 0 1 4531.25 4843.75zM4531.25 468.75H468.75V4531.25H4531.25L4531.4453125 468.75z" />
    <glyph glyph-name="cil-accessibility"
      unicode="&#xEA04;"
      horiz-adv-x="5000" d="M2500 3593.75A625 625 0 1 1 1875 4218.75A625.703125 625.703125 0 0 1 2500 3593.75zM2500 4531.25A312.5 312.5 0 1 0 2187.5 4218.75A312.8515625 312.8515625 0 0 0 2500 4531.25zM4375 2578.125V3437.5H625V2578.125H1875V2006.9921875L1132.01171875 146.03515625L2044.521484375 157.568359375L2467.294921875 1191.259765625L2890.625 156.25H3827.607421875L3046.875 2041.15234375V2578.125zM3359.912109375 468.75H3100.419921875L2589.1796875 1718.75H2345.400390625L1833.681640625 467.431640625L1595.6640625000002 464.423828125L2187.5 1946.9140624999995V2890.625H937.5V3125H4062.5V2890.625H2734.375V1978.9843750000005z" />
    <glyph glyph-name="cil-accessible"
      unicode="&#xEA05;"
      horiz-adv-x="5000" d="M3709.218749999999 4276.484375A332.890625 332.890625 0 0 1 4375 4276.484375A332.890625 332.890625 0 0 1 3709.218749999999 4276.484375M3890.234375 2741.494140625H2949.0625L3727.119140625 3519.53125A234.3750000000001 234.3750000000001 0 0 1 3727.119140625 3850.986328125L3450.908203125 4127.216796875L3446.54296875 4122.861328125L2818.359375 4767.294921875A246.9921875 246.9921875 0 0 1 2472.578125 4773.857421875L1777.7832031249998 4113.125L1993.1249999999995 3886.66015625L2640.41015625 4502.1875L3225.5859375 3901.865234375L2374.755859375 3051.044921875A1484.5800781249998 1484.5800781249998 0 0 1 953.623046875 2805.595703125L1176.0937499999998 2583.115234375A1168.759765625 1168.759765625 0 0 0 1926.9921874999995 2820.87890625C2539.658203125 2799.228515625 3036.6601562499995 2302.216796875 3058.3007812499995 1689.55078125A1168.7402343750002 1168.7402343750002 0 0 0 2820.5273437499995 938.681640625L3042.96875 716.201171875A1483.65234375 1483.65234375 0 0 1 3148.8671875 2428.994140625H3823.779296875V1058.18359375H4136.279296875V2495.419921875A246.09375 246.09375 0 0 1 3890.234375 2741.494140625zM2929.1992187500005 2704.384765625C2926.2695312500005 2707.24609375 2923.33984375 2710.078125 2920.4589843750005 2712.919921875L2929.1992187500005 2721.66015625zM1884.6875 472.91015625A1173.6914062500002 1173.6914062500002 0 0 0 954.306640625 2362.978515625L731.9726562499999 2585.302734375A1479.78515625 1479.78515625 0 0 1 397.822265625 1647.2753906250005C397.822265625 827.4218750000009 1064.814453125 160.41015625 1884.6875 160.41015625A1479.78515625 1479.78515625 0 0 1 2822.71484375 494.560546875L2600.3906249999995 716.884765625A1168.388671875 1168.388671875 0 0 0 1884.6875 472.91015625z" />
    <glyph glyph-name="cil-account-logout"
      unicode="&#xEA06;"
      horiz-adv-x="5000" d="M753.466796875 2343.41796875L3435.05859375 2343.41796875L3435.05859375 2343.427734375L3435.05859375 2655.91796875L3435.05859375 2655.927734375L753.466796875 2655.927734375L1486.40625 3388.8671875L1486.40625 3388.8671875L1486.40625 3388.876953125L1265.4296875000002 3609.833984375L155.263671875 2499.677734375L155.2734375 2499.66796875L155.263671875 2499.66796875L1265.4296875000002 1389.5019531250005L1486.40625 1610.46875L1486.40625 1610.478515625L1486.40625 1610.478515625L753.466796875 2343.41796875zM1562.5 4843.75L1562.5 4531.25L4531.25 4531.25L4531.25 468.75L1562.5 468.75L1562.5 156.25L4843.75 156.25L4843.75 4843.75L1562.5 4843.75z" />
    <glyph glyph-name="cil-action-redo"
      unicode="&#xEA07;"
      horiz-adv-x="5000" d="M3529.0624999999995 164.423828125L2214.384765625 1479.1015625L2435.3515625 1700.068359375L3529.0624999999995 606.357421875L4622.783203125 1700.068359375L4843.75 1479.1015625L3529.0624999999995 164.423828125zM3685.322265625 385.546875H3372.822265625V3081.77734375C3372.822265625 3881.015625 2722.59765625 4531.25 1923.359375 4531.25C1110.576171875 4531.25 473.8867187500001 3914.98046875 473.8867187500001 3128.251953125H161.38671875C161.38671875 3597.236328125 345.4687500000001 4032.24609375 679.736328125 4353.14453125C1009.27734375 4669.51171875 1450.9375 4843.75 1923.359375 4843.75C2894.9121093749995 4843.75 3685.322265625 4053.33984375 3685.322265625 3081.77734375z" />
    <glyph glyph-name="cil-action-undo"
      unicode="&#xEA08;"
      horiz-adv-x="5000" d="M4838.603515625 3073.61328125C4838.603515625 3787.099609375 4412.32421875 4402.890625 3801.083984375 4679.6875Q3781.552734375 4688.4765625 3761.81640625 4696.89453125Q3722.3046875 4713.642578125 3681.8359375 4728.486328125Q3661.611328124999 4735.91796875 3641.142578125 4742.841796875Q3600.224609375 4756.728515625 3558.447265625 4768.623046875A1767.099609375 1767.099609375 0 0 1 2594.82421875 4768.623046875Q2553.0468749999995 4756.728515625 2512.119140625 4742.841796875Q2491.669921875 4735.908203125 2471.435546875 4728.486328125Q2430.9765625 4713.65234375 2391.455078125 4696.89453125Q2371.69921875 4688.525390625 2352.1875 4679.6875C1740.9375 4402.890625 1314.6679687500002 3787.109375 1314.6679687500002 3073.61328125H1314.6679687500002V754.443359375L377.216796875 1691.89453125L156.25 1470.927734375L1470.927734375 156.25L2785.60546875 1470.927734375L2564.6386718750005 1691.89453125L1627.1386718750002 754.39453125V3073.603515625C1627.1386718750002 3785.4296875 2142.900390625 4379.052734375 2820.3613281250005 4500.361328125A1459.1699218750002 1459.1699218750002 0 0 0 3332.8515625000005 4500.361328125C4010.302734375001 4379.013671875 4526.07421875 3785.390625 4526.07421875 3073.603515625H4838.57421875z" />
    <glyph glyph-name="cil-address-book"
      unicode="&#xEA09;"
      horiz-adv-x="5000" d="M4843.75 3586.25V3913.75H4460.625V4589.84375A244.140625 244.140625 0 0 1 4214.736328125 4831.71875H785.263671875A244.140625 244.140625 0 0 1 539.375 4589.84375V390.625A244.140625 244.140625 0 0 1 785.263671875 148.75H4214.736328125A244.140625 244.140625 0 0 1 4460.625 390.625V1086.2500000000005H4843.75V1413.7499999999995H4460.625V2336.2500000000005H4843.75V2663.75H4460.625V3586.25zM4133.125 2663.75H3671.875V2336.2499999999995H4133.125V1413.7499999999995H3671.875V1086.2499999999995H4133.125V476.25H866.875V4504.21875H4133.125V3913.75H3671.875V3586.25H4133.125zM3062.880859375 2002.685546875H3062.880859375L2782.16796875 2185.15625L2917.12890625 2513.818359375V3030.13671875A641.73828125 641.73828125 0 1 1 1633.65234375 3030.13671875V2516.884765625L1757.880859375 2178.1738281249995L1487.900390625 2002.6855468749995A478.2421875 478.2421875 0 0 1 1269.53125 1600.302734375V1093.75H3281.25V1600.302734375A478.2421875 478.2421875 0 0 1 3062.880859375 2002.685546875zM2968.75 1406.25H1582.03125V1600.302734375A166.8359375 166.8359375 0 0 0 1658.203125 1740.6640624999995L2137.0410156250005 2051.9140625L1946.1523437500005 2572.421875V3030.13671875A329.23828125 329.23828125 0 0 0 2604.6289062500005 3030.13671875V2575.478515625L2394.6679687500005 2064.27734375L2892.578125 1740.6640625000005H2892.578125A166.8359375 166.8359375 0 0 0 2968.75 1600.3027343750005z" />
    <glyph glyph-name="cil-address-card"
      unicode="&#xEA0A;"
      horiz-adv-x="5000" d="M2792.96875 1756.552734375A478.2421875 478.2421875 0 0 1 2574.599609375 2158.8964843749995H2574.599609375L2293.88671875 2341.3671874999995L2428.84765625 2670.0292968749995V3186.38671875A641.73828125 641.73828125 0 0 1 1145.37109375 3186.38671875V2673.134765625L1269.599609375 2334.4238281249995L999.619140625 2158.9355468749995A478.2421875 478.2421875 0 0 1 781.25 1756.552734375V1250H2792.96875zM2480.46875 1562.5H1093.75V1756.552734375A166.8359375 166.8359375 0 0 0 1169.921875 1896.9140624999995L1648.759765625 2208.1640625L1457.87109375 2728.671875V3186.38671875A329.23828125 329.23828125 0 0 0 2116.34765625 3186.38671875V2731.728515625L1906.38671875 2220.52734375L2404.296875 1896.9140625000005H2404.296875A166.8359375 166.8359375 0 0 0 2480.46875 1756.5527343750005zM4609.375 4375H390.625A234.6484375 234.6484375 0 0 1 156.25 4140.625V859.375A234.6484375 234.6484375 0 0 1 390.625 625H4609.375A234.6484375 234.6484375 0 0 1 4843.75 859.375V4140.625A234.6484375 234.6484375 0 0 1 4609.375 4375zM4531.25 937.5H468.75V4062.5H4531.25zM2890.625 3671.875H4218.75V3359.375H2890.625V3671.875zM2890.625 3046.875H4218.75V2734.375H2890.625V3046.875z" />
    <glyph glyph-name="cil-airplane-mode"
      unicode="&#xEA0B;"
      horiz-adv-x="5000" d="M4655.830078125 1701.171875L4785.99609375 2352.01171875L3125 3182.509765625V3887.802734375A1026.85546875 1026.85546875 0 0 1 2754.521484375 4678.818359375A397.509765625 397.509765625 0 0 1 2245.478515625 4678.818359375A1026.85546875 1026.85546875 0 0 1 1875 3887.802734375V3182.509765625L214.00390625 2352.01171875L344.169921875 1701.171875L1879.2187499999995 1901.3671875L1954.7656249999995 1108.1640625L1250 806.15234375V156.25H3750V806.15234375L3045.234375 1108.193359375L3120.78125 1901.3964843749995zM3437.5 600.087890625V468.75H1562.5V600.087890625L2287.48046875 910.810546875L2187.5 1960.546875V2256.7578125L593.330078125 2048.828125L567.24609375 2179.23828125L2187.5 2989.365234375V3887.802734375A715.1855468749999 715.1855468749999 0 0 0 2445.537109375 4438.7109375A85.029296875 85.029296875 0 0 0 2554.462890625 4438.7109375A715.1855468749999 715.1855468749999 0 0 0 2812.5 3887.802734375V2989.365234375L4432.75390625 2179.23828125L4406.669921875 2048.828125L2812.5 2256.7578125V1960.546875L2712.51953125 910.810546875z" />
    <glyph glyph-name="cil-airplane-mode-off"
      unicode="&#xEA0C;"
      horiz-adv-x="5000" d="M2187.5 3887.802734375A715.1855468749999 715.1855468749999 0 0 0 2445.537109375 4438.7109375A85.029296875 85.029296875 0 0 0 2554.462890625 4438.7109375A715.1855468749999 715.1855468749999 0 0 0 2812.5 3887.802734375V2989.365234375L4432.75390625 2179.23828125L4406.669921875 2048.828125L3557.685546875 2159.560546875L3920.126953125 1797.138671875L4655.830078125 1701.171875L4785.99609375 2352.01171875L3125 3182.509765625V3887.802734375A1026.904296875 1026.904296875 0 0 1 2754.521484375 4678.818359375A397.509765625 397.509765625 0 0 1 2245.478515625 4678.818359375A1026.904296875 1026.904296875 0 0 1 1875 3887.802734375V3842.1484375L2187.5 3529.6484375zM376.1425781250001 4843.75H156.533203125V4622.509765625L1689.453125 3089.716796875L214.00390625 2352.01171875L344.169921875 1701.171875L1879.2187499999995 1901.3671875L1954.755859375 1108.1640625L1250 806.15234375V156.25H3750V806.15234375L3045.2441406249995 1108.193359375L3099.6484375 1679.55078125L4623.046875 156.25H4843.75V376.38671875zM3437.5 600.09765625V468.75H1562.5V600.09765625L2287.48046875 910.810546875L2187.5 1960.546875V2256.7578125L593.330078125 2048.828125L567.24609375 2179.23828125L1922.3437500000005 2856.787109375L2812.5 1966.689453125V1960.546875L2712.51953125 910.810546875z" />
    <glyph glyph-name="cil-airplay"
      unicode="&#xEA0D;"
      horiz-adv-x="5000" d="M4531.25 4541.015625H468.75A312.8515625 312.8515625 0 0 1 156.25 4228.515625V1328.125A312.8515625 312.8515625 0 0 1 468.75 1015.625H1215.3125L1458.37890625 1328.125H468.75V4228.515625H4531.25L4531.4453125 1328.125H3541.62109375L3784.687499999999 1015.625H4531.25A312.8515625 312.8515625 0 0 1 4843.75 1328.125V4228.515625A312.8515625 312.8515625 0 0 1 4531.25 4541.015625zM965.17578125 156.25H4034.82421875L2500 2129.501953125zM1604.1503906249998 468.75L2500 1620.498046875L3395.849609375 468.75z" />
    <glyph glyph-name="cil-alarm"
      unicode="&#xEA0E;"
      horiz-adv-x="5000" d="M2500 4218.75C1378.173828125 4218.75 468.75 3309.326171875 468.75 2187.5S1378.173828125 156.25 2500 156.25S4531.25 1065.673828125 4531.25 2187.5S3621.826171875 4218.75 2500 4218.75zM3715.341796875 972.158203125A1718.75 1718.75 0 1 0 4218.75 2187.5A1707.509765625 1707.509765625 0 0 0 3715.341796875 972.158203125zM2656.25 3437.5L2343.75 3437.5L2343.75 2112.40234375L3183.642578125 1440.4882812499995L3378.857421875 1684.5117187500005L2656.25 2262.59765625L2656.25 3437.5zM224.2685893609679 3878.947760805205L1708.6510625457774 4894.56476226487L1885.118748884298 4636.647121748906L400.7362756994887 3621.0301202892415L224.2685893609678 3878.947760805205zM3114.9095429552626 4636.656525120594L3291.381730778932 4894.571085655125L4775.746477877043 3878.928176988633L4599.274290053374 3621.013616454102L3114.909542955262 4636.656525120594z" />
    <glyph glyph-name="cil-alarm-add"
      unicode="&#xEA0F;"
      horiz-adv-x="5000" d="M2500 4218.75C1378.173828125 4218.75 468.75 3309.326171875 468.75 2187.5S1378.173828125 156.25 2500 156.25S4531.25 1065.673828125 4531.25 2187.5S3621.826171875 4218.75 2500 4218.75zM3715.341796875 972.158203125A1718.75 1718.75 0 1 0 4218.75 2187.5A1707.509765625 1707.509765625 0 0 0 3715.341796875 972.158203125zM224.2685893609679 3878.947760805205L1708.6510625457774 4894.56476226487L1885.118748884298 4636.647121748906L400.7362756994887 3621.0301202892415L224.2685893609678 3878.947760805205zM3114.9095429552626 4636.656525120594L3291.381730778932 4894.571085655125L4775.746477877043 3878.928176988633L4599.274290053374 3621.013616454102L3114.909542955262 4636.656525120594zM2656.25 3046.875L2343.75 3046.875L2343.75 2343.75L1640.625 2343.75L1640.625 2031.25L2343.75 2031.25L2343.75 1328.125L2656.25 1328.125L2656.25 2031.25L3359.375 2031.25L3359.375 2343.75L2656.25 2343.75L2656.25 3046.875z" />
    <glyph glyph-name="cil-alarm-off"
      unicode="&#xEA10;"
      horiz-adv-x="5000" d="M3114.8693642389844 4636.686138150126L3291.337050577505 4894.60377866609L4775.7195237623155 3878.986777206425L4599.251837423794 3621.0691366904607L3114.8693642389844 4636.686138150126zM1885.107421875 4636.669921875L1708.642578125 4894.580078125L1150.33203125 4512.578125L1375.15625 4287.75390625L1885.107421875 4636.669921875zM1873.857421875 3789.0625A1720.703125 1720.703125 0 0 0 4101.5625 1561.357421875L4338.9453125 1323.974609375A2023.2421875 2023.2421875 0 0 1 4531.25 2187.5C4531.25 3309.326171875 3621.826171875 4218.75 2500 4218.75A2023.2421875 2023.2421875 0 0 1 1636.474609375 4026.435546875zM377.216796875 4843.75H156.25V4622.783203125L625.52734375 4153.505859375L224.267578125 3878.90625L400.732421875 3620.99609375L850.3515624999999 3928.61328125L1110.41015625 3668.5546875A2025.068359375 2025.068359375 0 0 1 468.75 2187.5C468.75 1065.673828125 1378.173828125 156.25 2500 156.25A2024.9609374999995 2024.9609374999995 0 0 1 3981.044921875 797.98828125L4622.783203125 156.25H4843.75V377.216796875zM3715.341796875 972.158203125A1718.75 1718.75 0 0 0 1284.6777343750002 3402.822265625C1299.9902343750002 3418.125 1315.6250000000002 3432.98828125 1331.4160156250002 3447.6171875L3760.166015625 1018.8769531250005Q3738.22265625 995.17578125 3715.341796875 972.158203125z" />
    <glyph glyph-name="cil-alarm-on"
      unicode="&#xEA11;"
      horiz-adv-x="5000" d="M2500 4179.6875C1378.173828125 4179.6875 468.75 3270.263671875 468.75 2148.4375S1378.173828125 117.1875 2500 117.1875S4531.25 1026.611328125 4531.25 2148.4375S3621.826171875 4179.6875 2500 4179.6875zM3715.341796875 933.095703125A1718.75 1718.75 0 1 0 4218.75 2148.4375A1707.509765625 1707.509765625 0 0 0 3715.341796875 933.095703125zM224.2651774597708 3839.896289690949L1708.6476506445802 4855.513291150613L1885.115336983101 4597.59565063465L400.7328637982916 3581.978649174985L224.2651774597707 3839.896289690949zM3114.9176025334173 4597.598276162054L3291.3897903570864 4855.5128366965855L4775.754537455198 3839.8699280300934L4599.282349631529 3581.9553674955623L3114.917602533417 4597.598276162054zM2407.6953125 1908.9550781249995L1876.591796875 2440.048828125L1655.625 2219.08203125L2407.6953125 1467.01171875L3634.404296875 2693.720703125L3413.4277343750005 2914.6875L2407.6953125 1908.9550781249995z" />
    <glyph glyph-name="cil-alarm-snooze"
      unicode="&#xEA12;"
      horiz-adv-x="5000" d="M2500 4179.6875C1378.173828125 4179.6875 468.75 3270.263671875 468.75 2148.4375S1378.173828125 117.1875 2500 117.1875S4531.25 1026.611328125 4531.25 2148.4375S3621.826171875 4179.6875 2500 4179.6875zM3715.341796875 933.095703125A1718.75 1718.75 0 1 0 4218.75 2148.4375A1707.509765625 1707.509765625 0 0 0 3715.341796875 933.095703125zM224.2651774597708 3839.896289690949L1708.6476506445802 4855.513291150613L1885.115336983101 4597.59565063465L400.7328637982916 3581.978649174985L224.2651774597707 3839.896289690949zM3114.9176025334173 4597.598276162054L3291.3897903570864 4855.5128366965855L4775.754537455198 3839.8699280300934L4599.282349631529 3581.9553674955623L3114.917602533417 4597.598276162054zM1875 2695.3125L2861.71875 2695.3125L1796.875 1711.6015624999995L1796.875 1289.0625L3203.125 1289.0625L3203.125 1601.5625L2138.28125 1601.5625L3203.125 2585.2734375L3203.125 3007.8125L1875 3007.8125L1875 2695.3125z" />
    <glyph glyph-name="cil-album"
      unicode="&#xEA13;"
      horiz-adv-x="5000" d="M4157.28515625 4157.28515625A2343.75 2343.75 0 0 1 842.71484375 842.71484375A2343.75 2343.75 0 0 1 4157.28515625 4157.28515625zM2500 468.75C1379.970703125 468.75 468.75 1379.9707031250005 468.75 2500S1379.970703125 4531.25 2500 4531.25S4531.25 3620.029296875 4531.25 2500S3620.029296874999 468.75 2500 468.75zM2500 3515.625A1015.6249999999998 1015.6249999999998 0 1 1 3515.625 2500A1016.77734375 1016.77734375 0 0 1 2500 3515.625zM2500 1796.875A703.125 703.125 0 1 0 3203.125 2500A703.916015625 703.916015625 0 0 0 2500 1796.875zM2343.75 2656.25H2656.25V2343.75H2343.75V2656.25zM2500 3906.25V4218.75A1700.625 1700.625 0 0 1 1719.0624999999998 4031.46484375A1734.111328125 1734.111328125 0 0 1 1125 3531.34765625L1374.86328125 3343.662109375A1395.732421875 1395.732421875 0 0 0 2500 3906.25z" />
    <glyph glyph-name="cil-align-center"
      unicode="&#xEA14;"
      horiz-adv-x="5000" d="M156.25 4375H4843.75V4062.5H156.25V4375zM937.5 3515.625H4062.5V3203.125H937.5V3515.625zM156.25 2656.25H4843.75V2343.75H156.25V2656.25zM937.5 1796.875H4062.5V1484.375H937.5V1796.875zM156.25 937.5H4843.75V625H156.25V937.5z" />
    <glyph glyph-name="cil-align-left"
      unicode="&#xEA15;"
      horiz-adv-x="5000" d="M156.25 4375H4843.75V4062.5H156.25V4375zM156.25 3515.625H3359.375V3203.125H156.25V3515.625zM156.25 2656.25H4843.75V2343.75H156.25V2656.25zM156.25 1796.875H3359.375V1484.375H156.25V1796.875zM156.25 937.5H4843.75V625H156.25V937.5z" />
    <glyph glyph-name="cil-align-right"
      unicode="&#xEA16;"
      horiz-adv-x="5000" d="M156.25 4375H4843.75V4062.5H156.25V4375zM1640.625 3515.625H4843.75V3203.125H1640.625V3515.625zM156.25 2656.25H4843.75V2343.75H156.25V2656.25zM1640.625 1796.875H4843.75V1484.375H1640.625V1796.875zM156.25 937.5H4843.75V625H156.25V937.5z" />
    <glyph glyph-name="cil-american-football"
      unicode="&#xEA17;"
      horiz-adv-x="5000" d="M4621.81640625 4539.6875L4599.677734375 4580.595703125L4558.779296875 4602.734375C4070.80078125 4866.826171875 3464.501953125 4939.775390625 2851.5625 4808.14453125C2228.046875 4674.228515625 1642.705078125 4347.685546875 1158.837890625 3863.80859375S348.41796875 2794.599609375 214.5019531249999 2171.0839843749995C82.900390625 1558.1640625 155.83984375 951.865234375 419.921875 463.8671875L442.0605468750001 422.958984375L482.9687500000001 400.8203125C812.28515625 222.59765625 1195.380859375 131.435546875 1598.14453125 131.435546875A2822.080078125 2822.080078125 0 0 1 2190.15625 195.419921875C2813.671875 329.326171875 3399.00390625 655.87890625 3882.87109375 1139.755859375S4693.359375 2208.984375 4827.2265625 2832.5C4958.8671875 3445.4296875 4885.91796875 4051.7578125 4621.81640625 4539.6875zM4368.69140625 4349.609375C4561.85546875 3970.13671875 4621.03515625 3531.181640625 4558.14453125 3084.716796875L3103.798828125 4539.0625C3550.2734375 4601.953125 3989.2578125 4542.7734375 4368.69140625 4349.609375zM673.06640625 653.974609375C475.78125 1041.54296875 418.26171875 1491.15234375 487.8222656250001 1947.4609375L1966.54296875 468.75C1510.244140625 399.169921875 1060.625 456.69921875 673.06640625 653.974609375zM3661.923828125 1360.751953125H3661.923828125C3267.0605468750005 965.8886718750005 2801.4550781250005 690.9375 2327.34375 549.873046875L568.955078125 2308.251953125C710.0292968750001 2782.373046875 984.970703125 3247.978515625 1379.8339843750002 3642.841796875C1781.7480468750002 4044.755859375 2256.962890625 4322.36328125 2739.8339843750005 4461.07421875L4480.166015625 2720.703125C4341.455078125 2237.87109375 4063.84765625 1762.6953125 3661.923828125 1360.751953125zM3391.728515625 3170.771484375L3170.771484375 3391.728515625L2968.75 3189.716796875L2688.603515625 3469.853515625L2467.646484375 3248.896484375L2747.783203125 2968.75L2500 2720.966796875L2219.853515625 3001.103515625L1998.8964843750005 2780.146484375L2279.033203125 2500L2031.25 2252.216796875L1751.1035156249998 2532.353515625L1530.1464843750002 2311.396484375L1810.283203125 2031.25L1608.2714843750002 1829.228515625L1829.2285156249995 1608.271484375L2031.25 1810.283203125L2311.396484375 1530.146484375L2532.353515625 1751.103515625L2252.216796875 2031.25L2500 2279.033203125L2780.146484375 1998.896484375L3001.103515625 2219.853515625L2720.966796875 2500L2968.75 2747.783203125L3248.896484375 2467.646484375L3469.853515625 2688.603515625L3189.716796875 2968.75L3391.728515625 3170.771484375z" />
    <glyph glyph-name="cil-animal"
      unicode="&#xEA18;"
      horiz-adv-x="5000" d="M3738.525390625 2025.625A1284.7851562500002 1284.7851562500002 0 0 1 1261.4746093749998 2025.625L1083.2714843749998 1379.62890625A781.25 781.25 0 0 1 1836.38671875 390.625H3163.61328125A781.25 781.25 0 0 1 3916.728515625 1379.62890625zM3536.5527343749995 887.9296875A465.21484375 465.21484375 0 0 0 3163.61328125 703.125H1836.38671875A468.7500000000001 468.7500000000001 0 0 0 1384.51171875 1296.533203125L1562.71484375 1942.51953125A972.294921875 972.294921875 0 0 0 3437.2851562499995 1942.51953125L3615.488281249999 1296.533203125A465.1953125 465.1953125 0 0 0 3536.5527343749995 887.890625zM1426.7578125 2750.87890625C1453.9453124999998 2920.80078125 1417.890625 3102.705078125 1325.1953125 3263.212890625S1092.96875 3545.8984375 932.2558593749998 3607.314453125C760.146484375 3673.046875 584.5996093749999 3662.578125 437.783203125 3577.8515625C145.91796875 3409.3359375 69.111328125 2994.013671875 266.6015625 2652.021484375C359.267578125 2491.5136718750005 498.8085937500001 2369.306640625 659.521484375 2307.919921875A625.5664062500001 625.5664062500001 0 0 1 882.79296875 2265.2343750000005A538.408203125 538.408203125 0 0 1 1153.994140625 2337.3925781250005C1300.72265625 2422.12890625 1397.59765625 2568.974609375 1426.7578125 2750.87890625zM1118.1640625 2800.2734375C1104.19921875 2713.076171875 1061.42578125 2644.8046875 997.724609375 2608.02734375S853.515625 2568.359375 770.99609375 2599.853515625C677.119140625 2635.703125 594.0917968750001 2709.7265625 537.197265625 2808.271484375C427.822265625 2997.724609375 453.8183593750001 3226.240234375 594.033203125 3307.216796875A229.326171875 229.326171875 0 0 0 709.7265625 3337.080078125A312.021484375 312.021484375 0 0 0 820.7421875 3315.4296875C914.619140625 3279.560546875 997.6464843749998 3205.546875 1054.541015625 3107.001953125S1134.0234375 2899.501953125 1118.1640625 2800.2734375zM1460.60546875 3398.271484375C1571.5625 3309.5703125 1698.271484375 3263.37890625 1826.40625 3263.388671875A536.7675781250001 536.7675781250001 0 0 1 1940.556640625 3275.703125C2269.8828125 3347.294921875 2469.560546875 3719.482421875 2385.673828125 4105.37109375H2385.673828125C2346.318359375 4286.484375 2250.634765625 4445.380859375 2116.259765625 4552.8125C1972.3632812500005 4667.8515625 1801.9140625000005 4711.396484375 1636.3085937500002 4675.380859375C1306.9921875000002 4603.798828125 1107.3144531250002 4231.611328125 1191.1914062500002 3845.72265625C1230.556640625 3664.599609375 1326.2402343749998 3505.703125 1460.60546875 3398.271484375zM1702.6757812500002 4370.009765625A217.36328125 217.36328125 0 0 0 1748.8867187500002 4374.892578125C1806.9726562500005 4374.892578125 1866.7187500000005 4352.16796875 1921.1230468750005 4308.671875C1999.6093750000005 4245.927734375 2056.142578125 4150.13671875 2080.3027343750005 4038.935546875H2080.3027343750005C2126.787109375 3825.1171875 2032.3925781250005 3615.419921875 1874.1796875000005 3581.025390625C1802.2949218750005 3565.400390625 1724.7167968750002 3587.158203125 1655.7519531250005 3642.3046875C1577.2656250000002 3705.05859375 1520.7324218750005 3800.849609375 1496.5722656250002 3912.041015625C1450.078125 4125.91796875 1544.47265625 4335.615234375 1702.6757812500002 4370.009765625zM4562.216796875 3577.8515625C4415.458984375 3662.578125 4239.82421875 3673.046875 4067.744140625 3607.314453125C3907.03125 3545.91796875 3767.490234375 3423.720703125 3674.824218749999 3263.212890625S3546.0937499999995 2920.76171875 3573.26171875 2750.8789062500005C3602.3828125 2568.974609375 3699.238281249999 2422.12890625 3846.025390624999 2337.3925781250005A538.310546875 538.310546875 0 0 1 4117.2265625 2265.2343750000005A625.52734375 625.52734375 0 0 1 4340.498046875 2307.919921875C4501.2109375 2369.306640625 4640.751953125 2491.5136718750005 4733.41796875 2652.021484375C4930.888671875 2994.013671875 4854.08203125 3409.3359375 4562.216796875 3577.8515625zM4462.802734375 2808.271484375C4405.908203125 2709.7265625 4322.880859375 2635.703125 4229.00390625 2599.853515625C4146.5234375 2568.330078125 4065.99609375 2571.23046875 4002.294921875001 2608.02734375S3895.849609375001 2713.076171875 3881.85546875 2800.2734375C3865.976562500001 2899.501953125 3888.5546875 3008.41796875 3945.458984375 3106.9140625S4085.380859374999 3279.4726562500005 4179.2578125 3315.341796875A312.060546875 312.060546875 0 0 0 4290.2734375 3337.03125A229.326171875 229.326171875 0 0 0 4405.966796874999 3307.16796875C4546.181640625 3226.259765625 4572.20703125 2997.7734375 4462.802734375 2808.271484375zM3059.443359375 3275.703125A536.7675781250001 536.7675781250001 0 0 1 3173.59375 3263.388671875C3301.71875 3263.388671875 3428.4765625 3309.5703125 3539.3945312499995 3398.271484375C3673.759765625 3505.693359375 3769.443359375 3664.599609375 3808.80859375 3845.712890625C3892.685546875 4231.6015625 3693.0078125 4603.7890625 3363.69140625 4675.37109375C3198.095703125 4711.3671875 3027.6367187500005 4667.8515625 2883.740234375 4552.802734375C2749.3652343750005 4445.380859375 2653.681640625 4286.474609375 2614.326171875 4105.37109375C2530.439453125 3719.482421875 2730.1171875 3347.294921875 3059.443359375 3275.703125zM2919.6972656249995 4038.984375H2919.6972656249995C2943.8574218749995 4150.185546875 3000.3906249999995 4246.015625 3078.876953125 4308.720703125C3133.291015625 4352.216796875 3193.02734375 4374.94140625 3251.11328125 4374.94140625A217.36328125 217.36328125 0 0 0 3297.32421875 4370.05859375C3455.52734375 4335.6640625 3549.921875 4125.91796875 3503.4472656250005 3912.1484375C3479.2675781250005 3800.947265625 3422.7343750000005 3705.1171875 3344.2675781250005 3642.40234375C3275.3125000000005 3587.265625 3197.7832031250005 3565.5078125 3125.83984375 3581.123046875C2967.607421875 3615.46875 2873.212890625 3825.1953125 2919.6972656249995 4038.984375z" />
    <glyph glyph-name="cil-aperture"
      unicode="&#xEA19;"
      horiz-adv-x="5000" d="M2506.6796875000005 4836.5625A2336.9140625 2336.9140625 0 0 1 854.248046875 847.216796875A2336.9140625 2336.9140625 0 0 1 4159.12109375 4152.099609375A2321.6406249999995 2321.6406249999995 0 0 1 2506.6796875000005 4836.5625zM2410 4521.69921875L1426.1035156249998 2810.185546875L898.90625 3728.26171875A2022.8125 2022.8125 0 0 0 2410.029296875 4521.69921875zM2961.142578125 3281.123046875L3409.501953125 2505.60546875L2958.330078125 1716.630859375H2054.033203125L1606.19140625 2496.50390625L2057.255859375 3281.123046875zM709.453125 3430.6640625L1693.7109375 1716.630859375H639.90234375A2022.4609375000005 2022.4609375000005 0 0 0 709.453125 3430.6640625zM805.0683593749999 1404.1503906250005H2779.677734375L2257.275390625 490.6542968750009A2027.1875 2027.1875 0 0 0 805.0683593749999 1404.130859375zM2609.931640625 477.890625L3590.5078125 2192.578125L4119.4921875 1277.6171874999995A2023.1152343750005 2023.1152343750005 0 0 0 2609.931640625 477.87109375zM4307.861328125 1576.171875L3322.138671875 3281.123046875H4374.1015625A2022.783203125 2022.783203125 0 0 0 4307.861328125 1576.171875zM2236.943359375 3593.623046875L2762.578125 4507.94921875A2027.4316406250005 2027.4316406250005 0 0 0 4209.326171875 3593.623046875z" />
    <glyph glyph-name="cil-apple"
      unicode="&#xEA1A;"
      horiz-adv-x="5000" d="M4418.115234375 2919.453125C4314.51171875 3185 4149.453125 3390.703125 3940.380859375 3515.91796875A1540.15625 1540.15625 0 0 0 3768.671875000001 3254.619140625C3769.042968750001 3254.404296875 3769.423828125001 3254.21875 3769.794921875001 3254.00390625C4081.1328125 3075.068359375 4262.20703125 2617.79296875 4210.136718750001 2141.982421875C4123.876953125 1353.69140625 3884.453125000001 813.4375 3535.9570312500005 620.7421875C3309.3945312500005 495.478515625 3026.8457031250005 513.3203125 2696.1132812500005 673.7109374999991L2663.8085937500005 689.3359375H2425.634765625L2393.33984375 673.7109374999991C2062.607421875 513.30078125 1780.0585937500002 495.478515625 1553.49609375 620.7421875C1205.009765625 813.4374999999991 965.60546875 1353.6914062499995 879.31640625 2141.9824218749995C827.2460937500001 2617.7929687499995 1008.330078125 3075.0781249999995 1319.658203125 3254.003906249999A650.64453125 650.64453125 0 0 0 1649.1503906250002 3339.628906249999C1884.9218750000005 3339.628906249999 2156.6308593750005 3229.169921874999 2451.8847656250005 3010.957031249999L2462.4121093750005 3003.144531249999S2888.02734375 3054.892578125 3056.640625 3131.4453125C3564.658203125 3362.080078125 3676.7578125 3728.671875 3696.640625 3778.45703125A1190.29296875 1190.29296875 0 0 1 3686.669921875 4692.119140625L3646.89453125 4791.42578125L3539.970703125 4790.3515625A1198.994140625 1198.994140625 0 0 1 2363.662109375 3440.4296875C2179.091796875 3543.84765625 1999.619140625 3609.794921875 1827.6855468749995 3637.109375C1584.1015624999995 3675.830078125 1360.7812499999998 3638.0859375 1163.9355468749998 3524.94140625C947.7441406249995 3400.68359375 777.4023437499997 3191.30859375 671.3378906249998 2919.47265625C574.9121093749998 2672.333984375 538.4472656249998 2384.150390625 568.6621093749998 2108.0078125C667.7050781249998 1202.9199218750005 955.9570312499998 594.072265625 1402.2656249999998 347.265625A975.6640625000002 975.6640625000002 0 0 1 1881.7578124999995 224.775390625C2073.017578125 224.775390625 2278.5253906249995 275.498046875 2496.7480468749995 376.875H2592.7441406249995C3006.7480468749995 184.560546875 3374.8242187499995 174.55078125 3687.1875 347.265625C4133.4765625 594.052734375 4421.767578125 1202.900390625 4520.810546875 2108.0078125C4551.005859375 2384.130859375 4514.541015625 2672.314453125 4418.115234375 2919.453125zM3203.310546875 4405.99609375A883.9160156250001 883.9160156250001 0 0 0 3434.6875 4470.09765625A886.7187499999999 886.7187499999999 0 0 0 2701.71875 3345.048828125A887.0996093749999 887.0996093749999 0 0 0 3203.310546875 4405.99609375z" />
    <glyph glyph-name="cil-applications"
      unicode="&#xEA1B;"
      horiz-adv-x="5000" d="M859.375 4687.5A625 625 0 1 1 1484.375 4062.5A625.703125 625.703125 0 0 1 859.375 4687.5zM859.375 3750A312.5 312.5 0 1 0 1171.875 4062.5A312.8515625 312.8515625 0 0 0 859.375 3750zM2500 4687.5A625 625 0 1 1 3125 4062.5A625.703125 625.703125 0 0 1 2500 4687.5zM2500 3750A312.5 312.5 0 1 0 2812.5 4062.5A312.8515625 312.8515625 0 0 0 2500 3750zM4140.625 3437.5A625 625 0 1 1 3515.625 4062.5A625.703125 625.703125 0 0 1 4140.625 3437.5zM4140.625 4375A312.5 312.5 0 1 0 3828.125 4062.5A312.8515625 312.8515625 0 0 0 4140.625 4375zM859.375 3125A625 625 0 1 1 1484.375 2500A625.703125 625.703125 0 0 1 859.375 3125zM859.375 2187.5A312.5 312.5 0 1 0 1171.875 2500A312.8515625 312.8515625 0 0 0 859.375 2187.5zM2500 3125A625 625 0 1 1 3125 2500A625.703125 625.703125 0 0 1 2500 3125zM2500 2187.5A312.5 312.5 0 1 0 2812.5 2500A312.8515625 312.8515625 0 0 0 2500 2187.5zM4140.625 3125A625 625 0 1 1 4765.625 2500A625.703125 625.703125 0 0 1 4140.625 3125zM4140.625 2187.5A312.5 312.5 0 1 0 4453.125 2500A312.8515625 312.8515625 0 0 0 4140.625 2187.5zM859.375 1562.5A625 625 0 1 1 1484.375 937.5A625.703125 625.703125 0 0 1 859.375 1562.5zM859.375 625A312.5 312.5 0 1 0 1171.875 937.5A312.8515625 312.8515625 0 0 0 859.375 625zM2500 1562.5A625 625 0 1 1 3125 937.5A625.703125 625.703125 0 0 1 2500 1562.5zM2500 625A312.5 312.5 0 1 0 2812.5 937.5A312.8515625 312.8515625 0 0 0 2500 625zM4140.625 1562.5A625 625 0 1 1 4765.625 937.5A625.703125 625.703125 0 0 1 4140.625 1562.5zM4140.625 625A312.5 312.5 0 1 0 4453.125 937.5A312.8515625 312.8515625 0 0 0 4140.625 625z" />
    <glyph glyph-name="cil-applications-settings"
      unicode="&#xEA1C;"
      horiz-adv-x="5000" d="M859.375 3437.5A625 625 0 1 1 234.375 4062.5A625.703125 625.703125 0 0 1 859.375 3437.5zM859.375 4375A312.5 312.5 0 1 0 546.875 4062.5A312.8515625 312.8515625 0 0 0 859.375 4375zM2500 4687.5A625 625 0 1 1 3125 4062.5A625.703125 625.703125 0 0 1 2500 4687.5zM2500 3750A312.5 312.5 0 1 0 2812.5 4062.5A312.8515625 312.8515625 0 0 0 2500 3750zM4140.625 3437.5A625 625 0 1 1 3515.625 4062.5A625.703125 625.703125 0 0 1 4140.625 3437.5zM4140.625 4375A312.5 312.5 0 1 0 3828.125 4062.5A312.8515625 312.8515625 0 0 0 4140.625 4375zM859.375 3125A625 625 0 1 1 1484.375 2500A625.703125 625.703125 0 0 1 859.375 3125zM859.375 2187.5A312.5 312.5 0 1 0 1171.875 2500A312.8515625 312.8515625 0 0 0 859.375 2187.5zM2500 3125A625 625 0 1 1 3125 2500A625.703125 625.703125 0 0 1 2500 3125zM2500 2187.5A312.5 312.5 0 1 0 2812.5 2500A312.8515625 312.8515625 0 0 0 2500 2187.5zM4140.625 3125A625 625 0 1 1 4765.625 2500A625.703125 625.703125 0 0 1 4140.625 3125zM4140.625 2187.5A312.5 312.5 0 1 0 4453.125 2500A312.8515625 312.8515625 0 0 0 4140.625 2187.5zM4140.625 1562.5A625 625 0 1 1 4765.625 937.5A625.703125 625.703125 0 0 1 4140.625 1562.5zM4140.625 625A312.5 312.5 0 1 0 4453.125 937.5A312.8515625 312.8515625 0 0 0 4140.625 625zM546.875 1015.625H859.375V703.125H546.875V1015.625zM1484.375 1015.625H1796.875V703.125H1484.375V1015.625zM2421.875 1015.625H2734.375V703.125H2421.875V1015.625z" />
    <glyph glyph-name="cil-apps"
      unicode="&#xEA1D;"
      horiz-adv-x="5000" d="M859.375 4687.5A625 625 0 1 1 1484.375 4062.5A625.703125 625.703125 0 0 1 859.375 4687.5zM859.375 3750A312.5 312.5 0 1 0 1171.875 4062.5A312.8515625 312.8515625 0 0 0 859.375 3750zM2500 4687.5A625 625 0 1 1 3125 4062.5A625.703125 625.703125 0 0 1 2500 4687.5zM2500 3750A312.5 312.5 0 1 0 2812.5 4062.5A312.8515625 312.8515625 0 0 0 2500 3750zM4140.625 3437.5A625 625 0 1 1 3515.625 4062.5A625.703125 625.703125 0 0 1 4140.625 3437.5zM4140.625 4375A312.5 312.5 0 1 0 3828.125 4062.5A312.8515625 312.8515625 0 0 0 4140.625 4375zM859.375 3125A625 625 0 1 1 1484.375 2500A625.703125 625.703125 0 0 1 859.375 3125zM859.375 2187.5A312.5 312.5 0 1 0 1171.875 2500A312.8515625 312.8515625 0 0 0 859.375 2187.5zM2500 3125A625 625 0 1 1 3125 2500A625.703125 625.703125 0 0 1 2500 3125zM2500 2187.5A312.5 312.5 0 1 0 2812.5 2500A312.8515625 312.8515625 0 0 0 2500 2187.5zM4140.625 3125A625 625 0 1 1 4765.625 2500A625.703125 625.703125 0 0 1 4140.625 3125zM4140.625 2187.5A312.5 312.5 0 1 0 4453.125 2500A312.8515625 312.8515625 0 0 0 4140.625 2187.5zM859.375 1562.5A625 625 0 1 1 1484.375 937.5A625.703125 625.703125 0 0 1 859.375 1562.5zM859.375 625A312.5 312.5 0 1 0 1171.875 937.5A312.8515625 312.8515625 0 0 0 859.375 625zM2500 1562.5A625 625 0 1 1 3125 937.5A625.703125 625.703125 0 0 1 2500 1562.5zM2500 625A312.5 312.5 0 1 0 2812.5 937.5A312.8515625 312.8515625 0 0 0 2500 625zM4140.625 1562.5A625 625 0 1 1 4765.625 937.5A625.703125 625.703125 0 0 1 4140.625 1562.5zM4140.625 625A312.5 312.5 0 1 0 4453.125 937.5A312.8515625 312.8515625 0 0 0 4140.625 625z" />
    <glyph glyph-name="cil-apps-settings"
      unicode="&#xEA1E;"
      horiz-adv-x="5000" d="M859.375 3437.5A625 625 0 1 1 234.375 4062.5A625.703125 625.703125 0 0 1 859.375 3437.5zM859.375 4375A312.5 312.5 0 1 0 546.875 4062.5A312.8515625 312.8515625 0 0 0 859.375 4375zM2500 4687.5A625 625 0 1 1 3125 4062.5A625.703125 625.703125 0 0 1 2500 4687.5zM2500 3750A312.5 312.5 0 1 0 2812.5 4062.5A312.8515625 312.8515625 0 0 0 2500 3750zM4140.625 3437.5A625 625 0 1 1 3515.625 4062.5A625.703125 625.703125 0 0 1 4140.625 3437.5zM4140.625 4375A312.5 312.5 0 1 0 3828.125 4062.5A312.8515625 312.8515625 0 0 0 4140.625 4375zM859.375 3125A625 625 0 1 1 1484.375 2500A625.703125 625.703125 0 0 1 859.375 3125zM859.375 2187.5A312.5 312.5 0 1 0 1171.875 2500A312.8515625 312.8515625 0 0 0 859.375 2187.5zM2500 3125A625 625 0 1 1 3125 2500A625.703125 625.703125 0 0 1 2500 3125zM2500 2187.5A312.5 312.5 0 1 0 2812.5 2500A312.8515625 312.8515625 0 0 0 2500 2187.5zM4140.625 3125A625 625 0 1 1 4765.625 2500A625.703125 625.703125 0 0 1 4140.625 3125zM4140.625 2187.5A312.5 312.5 0 1 0 4453.125 2500A312.8515625 312.8515625 0 0 0 4140.625 2187.5zM4140.625 1562.5A625 625 0 1 1 4765.625 937.5A625.703125 625.703125 0 0 1 4140.625 1562.5zM4140.625 625A312.5 312.5 0 1 0 4453.125 937.5A312.8515625 312.8515625 0 0 0 4140.625 625zM546.875 1015.625H859.375V703.125H546.875V1015.625zM1484.375 1015.625H1796.875V703.125H1484.375V1015.625zM2421.875 1015.625H2734.375V703.125H2421.875V1015.625z" />
    <glyph glyph-name="cil-archive"
      unicode="&#xEA1F;"
      horiz-adv-x="5000" d="M312.5 4843.75V156.25H4687.5V4843.75zM4375 4531.25V4062.5H625V4531.25zM3184.677734375 3750L3028.427734375 3437.5H1971.572265625L1815.322265625 3750zM4375 468.75H625V1953.125H1465.927734375L1778.427734375 1328.125H3221.572265625L3534.072265625 1953.125H4375zM1815.322265625 1953.125H3184.677734375L3028.427734375 1640.625H1971.572265625zM625 2265.625V3750H1465.927734375L1778.427734375 3125H3221.572265625L3534.072265625 3750H4375V2265.625z" />
    <glyph glyph-name="cil-arrow-bottom"
      unicode="&#xEA20;"
      horiz-adv-x="5000" d="M3593.720703125 1691.89453125L2656.2402343750005 754.423828125L2656.2402343750005 4829.072265625L2343.740234375 4829.072265625L2343.740234375 754.443359375L1406.2792968749998 1691.89453125L1185.3125 1470.927734375L2500 156.25L3814.687500000001 1470.927734375L3593.720703125 1691.89453125z" />
    <glyph glyph-name="cil-arrow-circle-bottom"
      unicode="&#xEA21;"
      horiz-adv-x="5000" d="M2500 4843.75C1205.5859375 4843.75 156.25 3794.4140625 156.25 2500S1205.5859375 156.25 2500 156.25S4843.75 1205.5859375 4843.75 2500S3794.4140625 4843.75 2500 4843.75zM3936.308593749999 1063.6914062500005A2023.955078125 2023.955078125 0 1 0 4371.748046875 1709.4433593750005A2024.7265625000005 2024.7265625000005 0 0 0 3936.308593749999 1063.6914062500005zM2657.34375 1928.896484375L2657.34375 3750L2344.84375 3750L2344.84375 1928.896484375L1611.904296875 2661.826171875L1390.9374999999998 2440.859375L2501.09375 1330.703125L3611.259765625 2440.859375L3390.29296875 2661.826171875L2657.34375 1928.896484375z" />
    <glyph glyph-name="cil-arrow-circle-left"
      unicode="&#xEA22;"
      horiz-adv-x="5000" d="M2500 4843.33984375C1205.5859375 4843.33984375 156.25 3794.013671875 156.25 2499.5898437499995S1205.5859375 155.83984375 2500 155.83984375S4843.75 1205.1757812499995 4843.75 2499.5898437499995S3794.4140625 4843.33984375 2500 4843.33984375zM3936.308593749999 1063.28125A2023.955078125 2023.955078125 0 1 0 4371.748046875 1708.984375A2025.0390624999995 2025.0390624999995 0 0 0 3936.308593749999 1063.28125zM2662.2460937499995 3388.798828125L2441.26953125 3609.765625L1331.103515625 2499.599609375L2441.26953125 1389.43359375L2662.2460937499995 1610.4003906249995L1929.296875 2343.349609375L3759.765625 2343.349609375L3759.765625 2655.849609375L1929.296875 2655.849609375L2662.2460937499995 3388.798828125z" />
    <glyph glyph-name="cil-arrow-circle-right"
      unicode="&#xEA23;"
      horiz-adv-x="5000" d="M2502.44140625 4843.33984375C1208.02734375 4843.33984375 158.69140625 3794.013671875 158.69140625 2499.5898437499995S1208.02734375 155.83984375 2502.44140625 155.83984375S4846.19140625 1205.1757812499995 4846.19140625 2499.5898437499995S3796.875 4843.33984375 2502.44140625 4843.33984375zM3938.749999999999 1063.28125A2023.955078125 2023.955078125 0 1 0 4374.189453125 1708.984375A2025.0390624999995 2025.0390624999995 0 0 0 3938.749999999999 1063.28125zM2340.205078125 3388.798828125L3073.14453125 2655.849609375L1251.337890625 2655.849609375L1251.337890625 2343.349609375L3073.14453125 2343.349609375L2340.205078125 1610.4003906249995L2561.171875 1389.43359375L3671.337890625 2499.599609375L2561.171875 3609.765625L2340.205078125 3388.798828125z" />
    <glyph glyph-name="cil-arrow-circle-top"
      unicode="&#xEA24;"
      horiz-adv-x="5000" d="M2500 4843.75C1205.5859375 4843.75 156.25 3794.4140625 156.25 2500S1205.5859375 156.25 2500 156.25S4843.75 1205.5859375 4843.75 2500S3794.4140625 4843.75 2500 4843.75zM3936.308593749999 1063.6914062500005A2023.955078125 2023.955078125 0 1 0 4371.748046875 1709.4433593750005A2024.7265625000005 2024.7265625000005 0 0 0 3936.308593749999 1063.6914062500005zM1389.833984375 2646.220703125L1610.810546875 2425.25390625L2343.75 3158.18359375L2343.75 1328.125L2656.25 1328.125L2656.25 3158.18359375L3389.189453125 2425.25390625L3610.166015625 2646.220703125L2500 3756.376953125L1389.833984375 2646.220703125z" />
    <glyph glyph-name="cil-arrow-left"
      unicode="&#xEA25;"
      horiz-adv-x="5000" d="M4856.767578125 2656.259765625L782.1484375 2656.259765625L1719.599609375 3593.7109375L1498.6328125 3814.677734375L183.955078125 2500L1498.6328125 1185.322265625L1719.599609375 1406.2890625L782.12890625 2343.7597656249995L4856.767578125 2343.7597656249995L4856.767578125 2656.259765625z" />
    <glyph glyph-name="cil-arrow-right"
      unicode="&#xEA26;"
      horiz-adv-x="5000" d="M3514.384765625 3814.677734375L3293.41796875 3593.7109375L4230.888671875 2656.240234375L156.25 2656.240234375L156.25 2656.23046875L156.25 2343.7402343750005L156.25 2343.73046875L4230.859375 2343.73046875L3293.41796875 1406.2890625L3514.384765625 1185.322265625L4829.08203125 2500L3514.384765625 3814.677734375z" />
    <glyph glyph-name="cil-arrow-thick-bottom"
      unicode="&#xEA27;"
      horiz-adv-x="5000" d="M2496.89453125 169.5703125L156.25 2516.6015625V2890.390625L1561.8847656250002 2890.458984375V4843.75H3436.884765625V2890.556640625L4843.28125 2890.625L4842.939453125 2512.8125zM536.435546875 2577.91015625L2497.373046875 611.6796875L4466.09375 2578.125L3124.384765625 2578.046875V4531.25H1874.3847656250005V2577.978515625z" />
    <glyph glyph-name="cil-arrow-thick-circle-down"
      unicode="&#xEA28;"
      horiz-adv-x="5000" d="M3125 3593.75H1875V2812.40234375L1093.75 2812.40234375V2437.4023437500005L2498.30078125 1028.9453124999995L3906.142578125001 2435.09765625L3906.328125 2812.5L3125 2812.5zM3528.896484375 2500L2498.740234375 1471.0546875000005L1472.705078125 2499.8828125L2187.5 2499.8828125V3281.25H2812.5V2499.951171875zM4157.28515625 4157.28515625A2343.75 2343.75 0 0 1 842.71484375 842.71484375A2343.75 2343.75 0 0 1 4157.28515625 4157.28515625zM2500 468.75C1379.970703125 468.75 468.75 1379.9707031250005 468.75 2500S1379.970703125 4531.25 2500 4531.25S4531.25 3620.029296875 4531.25 2500S3620.029296874999 468.75 2500 468.75z" />
    <glyph glyph-name="cil-arrow-thick-circle-left"
      unicode="&#xEA29;"
      horiz-adv-x="5000" d="M2812.353515625 3906.25H2431.26953125L1022.900390625 2501.69921875L2429.052734375 1093.8769531250005L2812.5097656250005 1093.6621093750005L2812.5 1875H3593.75V3125H2812.40234375zM3281.25 2187.5H2500L2500 1465.048828125L1465.009765625 2501.259765625L2499.8828125 3533.3203125L2499.8828125 2812.5H3281.25zM4157.28515625 4157.28515625A2343.75 2343.75 0 0 1 842.71484375 842.71484375A2343.75 2343.75 0 0 1 4157.28515625 4157.28515625zM2500 468.75C1379.970703125 468.75 468.75 1379.9707031250005 468.75 2500S1379.970703125 4531.25 2500 4531.25S4531.25 3620.029296875 4531.25 2500S3620.029296874999 468.75 2500 468.75z" />
    <glyph glyph-name="cil-arrow-thick-circle-right"
      unicode="&#xEA2A;"
      horiz-adv-x="5000" d="M2570.95703125 3906.1328125L2187.5 3906.328125L2187.5 3125H1406.25V1875H2187.607421875L2187.607421875 1093.75H2568.681640625L3977.099609375 2498.310546875zM2500.1269531250005 1466.6796875L2500.1269531250005 2187.5097656249995H1718.75V2812.5H2500.048828125L2500.048828125 3534.951171875L3534.990234375 2498.740234375zM4157.28515625 4157.28515625A2343.75 2343.75 0 0 1 842.71484375 842.71484375A2343.75 2343.75 0 0 1 4157.28515625 4157.28515625zM2500 468.75C1379.970703125 468.75 468.75 1379.9707031250005 468.75 2500S1379.970703125 4531.25 2500 4531.25S4531.25 3620.029296875 4531.25 2500S3620.029296874999 468.75 2500 468.75z" />
    <glyph glyph-name="cil-arrow-thick-circle-up"
      unicode="&#xEA2B;"
      horiz-adv-x="5000" d="M1093.8671875 2564.90234375L1093.671875 2187.353515625L1875 2187.353515625V1406.25H3125V2187.5L3906.25 2187.5V2562.67578125L2501.689453125 3971.0546875zM2812.5 2499.951171875V1718.701171875H2187.5V2499.912109375L1470.966796875 2499.912109375L2501.240234375 3528.984375L3527.4218750000005 2500zM4157.28515625 4157.28515625A2343.75 2343.75 0 0 1 842.71484375 842.71484375A2343.75 2343.75 0 0 1 4157.28515625 4157.28515625zM2500 468.75C1379.970703125 468.75 468.75 1379.9707031250005 468.75 2500S1379.970703125 4531.25 2500 4531.25S4531.25 3620.029296875 4531.25 2500S3620.029296874999 468.75 2500 468.75z" />
    <glyph glyph-name="cil-arrow-thick-from-bottom"
      unicode="&#xEA2C;"
      horiz-adv-x="5000" d="M2501.953125 4843.75L546.875 2890.693359375V2513.427734375H1718.75V1107.177734375H3281.25V2513.427734375H4453.125V2890.625zM2968.75 2825.927734375V1419.677734375H2031.25V2825.927734375H924.208984375L2501.69921875 4401.81640625L4076.015625 2825.927734375zM546.875 482.177734375H4453.125V169.677734375H546.875V482.177734375z" />
    <glyph glyph-name="cil-arrow-thick-from-left"
      unicode="&#xEA2D;"
      horiz-adv-x="5000" d="M2890.693359375 4453.125H2513.427734375V3281.25H1107.177734375V1718.75H2513.427734375V546.875H2890.625L4843.75 2498.046875zM2825.927734375 923.984375V2031.25H1419.677734375V2968.75H2825.927734375V4075.791015625L4401.806640625 2498.30078125zM169.677734375 4453.125H482.177734375V546.875H169.677734375V4453.125z" />
    <glyph glyph-name="cil-arrow-thick-from-right"
      unicode="&#xEA2E;"
      horiz-adv-x="5000" d="M2486.572265625 4453.125H2109.306640625L156.25 2498.046875L2109.375 546.875H2486.552734375V1718.75H3892.802734375V3281.25H2486.552734375zM3580.322265625 2968.75V2031.25H2174.072265625V923.984375L598.193359375 2498.30078125L2174.072265625 4075.791015625V2968.75zM4517.822265625 4453.125H4830.322265625V546.875H4517.822265625V4453.125z" />
    <glyph glyph-name="cil-arrow-thick-from-top"
      unicode="&#xEA2F;"
      horiz-adv-x="5000" d="M3281.25 3892.822265625H1718.75V2486.572265625H546.875V2109.375L2498.046875 156.25L4453.125 2109.306640625V2486.572265625H3281.25zM4075.791015625 2174.072265625L2498.30078125 598.18359375L923.984375 2174.072265625H2031.25V3580.322265625H2968.75V2174.072265625zM546.875 4830.3125H4453.125V4517.8125H546.875V4830.3125z" />
    <glyph glyph-name="cil-arrow-thick-left"
      unicode="&#xEA30;"
      horiz-adv-x="5000" d="M2877.314453125 156.25L2499.501953125 156.591796875L156.25 2502.646484375L2503.26171875 4843.28125H2877.060546875L2877.1386718749995 3437.646484375H4830.4296875V1562.646484375H2877.236328125zM598.349609375 2502.216796875L2564.794921875 533.466796875L2564.716796875 1875.1757812500005H4517.9296875V3125.17578125H2564.658203125L2564.580078125 4463.125z" />
    <glyph glyph-name="cil-arrow-thick-right"
      unicode="&#xEA31;"
      horiz-adv-x="5000" d="M2483.3984375 156.25H2109.619140625L2109.541015625 1561.884765625H156.25V3436.884765625H2109.443359375L2109.375 4843.28125L2487.1875 4842.939453125L4830.4296875 2496.89453125zM468.75 1874.384765625H2422.021484375L2422.08984375 536.435546875L4388.3203125 2497.3730468750005L2421.875 4466.09375L2421.953125 3124.384765625H468.75z" />
    <glyph glyph-name="cil-arrow-thick-square-down"
      unicode="&#xEA32;"
      horiz-adv-x="5000" d="M3906.123046875 2435.09765625L3906.337890625 2812.5L3125 2812.5V3750H1875V2812.392578125L1093.75 2812.392578125V2437.392578125L2498.30078125 1028.9453124999995zM2187.5 2499.912109375V3437.5H2812.5V2499.951171875L3528.896484375 2499.951171875L2498.740234375 1471.0546875000005L1472.705078125 2499.873046875zM4609.375 4843.75H390.625A234.6484375 234.6484375 0 0 1 156.25 4609.375V390.625A234.6484375 234.6484375 0 0 1 390.625 156.25H4609.375A234.6484375 234.6484375 0 0 1 4843.75 390.625V4609.375A234.6484375 234.6484375 0 0 1 4609.375 4843.75zM4531.25 468.75H468.75V4531.25H4531.25z" />
    <glyph glyph-name="cil-arrow-thick-square-left"
      unicode="&#xEA33;"
      horiz-adv-x="5000" d="M2812.5 1093.662109375L2812.5 1875H3750V3125H2812.3925781249995L2812.3925781249995 3906.25H2437.3925781249995L1028.9453125 2501.69921875L2435.09765625 1093.8769531250005zM2499.86328125 3527.255859375L2499.86328125 2812.4609375H3437.5V2187.4609375H2500L2500 1471.064453125L1471.0546875 2501.259765625zM4609.375 4843.75H390.625A234.6484375 234.6484375 0 0 1 156.25 4609.375V390.625A234.6484375 234.6484375 0 0 1 390.625 156.25H4609.375A234.6484375 234.6484375 0 0 1 4843.75 390.625V4609.375A234.6484375 234.6484375 0 0 1 4609.375 4843.75zM4531.25 468.75H468.75V4531.25H4531.25z" />
    <glyph glyph-name="cil-arrow-thick-square-right"
      unicode="&#xEA34;"
      horiz-adv-x="5000" d="M2187.646484375 1093.75H2562.6464843749995L3971.054687500001 2498.30078125L2564.90234375 3906.142578125L2187.5 3906.328125L2187.5 3125H1250V1875H2187.607421875zM1562.5 2812.5H2500.048828125L2500.048828125 3528.90625L3528.9453124999995 2498.740234375L2500.126953125 1472.65625L2500.126953125 2187.451171875H1562.5zM4609.375 4843.75H390.625A234.6484375 234.6484375 0 0 1 156.25 4609.375V390.625A234.6484375 234.6484375 0 0 1 390.625 156.25H4609.375A234.6484375 234.6484375 0 0 1 4843.75 390.625V4609.375A234.6484375 234.6484375 0 0 1 4609.375 4843.75zM4531.25 468.75H468.75V4531.25H4531.25z" />
    <glyph glyph-name="cil-arrow-thick-square-up"
      unicode="&#xEA35;"
      horiz-adv-x="5000" d="M1875 1250H3125V2187.6074218750005L3906.25 2187.6074218750005V2562.6074218750005L2501.69921875 3971.0546875L1093.857421875 2564.90234375L1093.671875 2187.5L1875 2187.5zM1471.0937499999998 2500L2501.259765625 3528.9453125L3527.34375 2500.126953125L2812.548828125 2500.126953125V1562.5H2187.5V2500zM4609.375 4843.75H390.625A234.6484375 234.6484375 0 0 1 156.25 4609.375V390.625A234.6484375 234.6484375 0 0 1 390.625 156.25H4609.375A234.6484375 234.6484375 0 0 1 4843.75 390.625V4609.375A234.6484375 234.6484375 0 0 1 4609.375 4843.75zM4531.25 468.75H468.75V4531.25H4531.25z" />
    <glyph glyph-name="cil-arrow-thick-to-bottom"
      unicode="&#xEA36;"
      horiz-adv-x="5000" d="M3281.25 3281.201171875V4843.75H1718.75V3281.25H546.875V2904.072265625L2498.046875 950.947265625L4453.125 2903.935546875V3281.201171875zM2498.30078125 1392.8125000000005L923.984375 2968.701171875H2031.25V4531.25H2968.75V2968.75H4075.791015625zM546.875 468.75H4453.125V156.25H546.875V468.75z" />
    <glyph glyph-name="cil-arrow-thick-to-left"
      unicode="&#xEA37;"
      horiz-adv-x="5000" d="M3281.25 3281.25V4453.125H2904.033203125L950.9082031249998 2501.953125L2903.935546875 546.875H3281.25V1718.75H4843.75V3281.25zM4531.25 2031.25H2968.75V924.208984375L1392.822265625 2501.69921875L2968.75 4076.015625V2968.75H4531.25zM156.25 4453.125H468.75V546.875H156.25V4453.125z" />
    <glyph glyph-name="cil-arrow-thick-to-right"
      unicode="&#xEA38;"
      horiz-adv-x="5000" d="M1718.75 4453.125V3281.25H156.25V1718.75H1718.75V546.875H2095.927734375L4049.052734375 2498.046875L2096.044921875 4453.125zM2031.25 923.984375V2031.25H468.75V2968.75H2031.25V4075.791015625L3607.158203125 2498.30078125zM4531.23046875 4453.125H4843.73046875V546.875H4531.23046875V4453.125z" />
    <glyph glyph-name="cil-arrow-thick-to-top"
      unicode="&#xEA39;"
      horiz-adv-x="5000" d="M546.875 2096.044921875V1718.75H1718.75V156.25H3281.25V1718.75H4453.125V2095.9570312499995L2501.953125 4049.08203125zM2968.75 2031.25V468.75H2031.25V2031.25H924.208984375L2501.69921875 3607.12890625L4076.015625 2031.25zM546.875 4843.73046875H4453.125V4531.23046875H546.875V4843.73046875z" />
    <glyph glyph-name="cil-arrow-thick-top"
      unicode="&#xEA3A;"
      horiz-adv-x="5000" d="M3438.10546875 156.25H1563.1054687500002V2109.443359375L156.708984375 2109.375L157.0703125 2487.1875L2503.10546875 4830.4296875L4843.75 2483.3984375V2109.58984375L3438.10546875 2109.53125zM1875.6054687500005 468.75H3125.60546875V2422.03125L4463.564453125 2422.08984375L2502.67578125 4388.3203125L533.90625 2421.875L1875.6054687499995 2421.953125z" />
    <glyph glyph-name="cil-arrow-top"
      unicode="&#xEA3B;"
      horiz-adv-x="5000" d="M3814.687500000001 3529.052734375L2500 4843.75L1185.3125 3529.052734375L1406.2890625 3308.0859375L2343.759765625 4245.56640625L2343.759765625 163.7109375L2656.2597656249995 163.7109375L2656.2597656249995 4245.537109375L3593.7109375 3308.0859375L3814.687500000001 3529.052734375z" />
    <glyph glyph-name="cil-art-track"
      unicode="&#xEA3C;"
      horiz-adv-x="5000" d="M156.25 1171.875H2812.5V3828.125H156.25zM468.75 3515.625H1619.912109375A1331.1328125 1331.1328125 0 0 0 468.75 2431.1132812500005zM468.75 2116.8554687499995C1222.65625 2188.4765625 1829.521484375 2772.333984375 1936.30859375 3515.625H2500V1484.375H468.75zM3359.375 3828.125H4843.75V3515.625H3359.375V3828.125zM3359.375 2656.25H4843.75V2343.75H3359.375V2656.25zM3359.375 1562.5H4296.875V1250H3359.375V1562.5z" />
    <glyph glyph-name="cil-aspect-ratio"
      unicode="&#xEA3D;"
      horiz-adv-x="5000" d="M4843.75 625H156.25V4375H4843.75zM468.75 937.5H4531.25V4062.5H468.75zM4218.75 2734.375L3906.25 2734.375L3906.25 3437.5L3203.125 3437.5L3203.125 3750L4218.75 3750L4218.75 2734.375zM1796.875 1250L781.25 1250L781.25 2265.625L1093.75 2265.625L1093.75 1562.5L1796.875 1562.5L1796.875 1250z" />
    <glyph glyph-name="cil-assistive-listening-system"
      unicode="&#xEA3E;"
      horiz-adv-x="5000" d="M2706.435546875 4165.87890625L2624.130859375 3862.939453125A1508.73046875 1508.73046875 0 0 0 3850.25390625 2691.494140625L4161.982421875 2726.650390625A1822.1484375 1822.1484375 0 0 1 2706.435546875 4165.87890625zM4121.689453125 4121.689453125A2448.056640625 2448.056640625 0 0 1 2876.953125 4793.49609375L2794.677734375 4490.712890625C3658.554687500001 4320.791015625 4338.701171875 3632.578125 4496.50390625 2764.47265625L4808.02734375 2799.62890625A2447.265625 2447.265625 0 0 1 4121.689453125 4121.689453125zM2276.42578125 3547.333984375Q2261.03515625 3547.5390625 2245.703125 3547.333984375A1211.748046875 1211.748046875 0 0 1 1045.13671875 2335.64453125H1359.9511718750002A899.3261718749999 899.3261718749999 0 0 0 2249.2285156250005 3234.912109375Q2259.4824218750005 3235 2269.736328125 3234.912109375C2755.3710937500005 3228.173828125 3153.046875 2827.470703125 3156.2011718750005 2341.6992187499995A890.9472656250001 890.9472656250001 0 0 0 2876.7089843750005 1684.1699218749995A234.580078125 234.580078125 0 0 1 2804.3652343750005 1514.9023437499995V1019.921875A551.7578125 551.7578125 0 0 0 2253.28125 468.75H2168.9453125V156.25H2255.556640625A864.58984375 864.58984375 0 0 1 3119.169921875 1019.873046875V1481.962890625A1216.943359375 1216.943359375 0 0 1 3470.99609375 2343.681640625A1215.21484375 1215.21484375 0 0 1 2276.42578125 3547.333984375zM2765.048828125 2335.64453125A508.1054687499999 508.1054687499999 0 1 1 1748.8476562500002 2335.64453125H2061.34765625A195.60546875 195.60546875 0 1 0 2452.548828125 2335.64453125zM2109.375 2031.25H2421.875V1718.75H2109.375V2031.25zM1093.75 1015.625H1406.25V703.125H1093.75V1015.625zM1207.5153519695539 1676.2598726596502L1428.4793157506901 1897.2238364407865L2287.855741780446 1037.84741041103L2066.89177799931 816.883446629894L1207.5153519695539 1676.2598726596502z" />
    <glyph glyph-name="cil-asterisk"
      unicode="&#xEA3F;"
      horiz-adv-x="5000" d="M2801.787109375 2500L4062.5 3262.919921875L4062.5 3621.923828125L4059.736328125 3626.50390625L2656.25 2777.177734375L2656.25 4296.875L2343.75 4296.875L2343.75 2777.177734375L940.263671875 3626.50390625L937.5 3621.923828125L937.5 3262.919921875L2198.212890625 2500L937.5 1737.080078125L937.5 1378.076171875L940.263671875 1373.49609375L2343.75 2222.822265625L2343.75 703.125L2656.25 703.125L2656.25 2222.822265625L4059.736328125 1373.49609375L4062.5 1378.076171875L4062.5 1737.080078125L2801.787109375 2500z" />
    <glyph glyph-name="cil-asterisk-circle"
      unicode="&#xEA40;"
      horiz-adv-x="5000" d="M2656.25 2777.1875L2656.25 3814.5703125L2343.75 3814.5703125L2343.75 2777.177734375L1380.634765625 3360.009765625L1356.89453125 3320.78125L1356.89453125 3009.111328125L2198.203125 2500L1356.89453125 1990.888671875L1356.89453125 1679.21875L1380.634765625 1639.990234375L2343.75 2222.822265625L2343.75 1185.4296875L2656.25 1185.4296875L2656.25 2222.8125L3619.365234375 1639.990234375L3643.105468749999 1679.208984375L3643.105468749999 1990.87890625L2801.787109375 2500L3643.105468749999 3009.12109375L3643.105468749999 3320.791015625L3619.365234375 3360.009765625L2656.25 2777.1875zM4158.759765625 4146.689453125A2337.548828125 2337.548828125 0 0 1 852.9687499999999 840.8984375A2337.548828125 2337.548828125 0 0 1 4158.759765625 4146.689453125zM2505.859375 468.75C1389.2480468749998 468.75 480.8203125 1377.1777343750005 480.8203125 2493.7890624999995S1389.2480468749998 4518.837890625 2505.859375 4518.837890625S4530.908203125 3610.41015625 4530.908203125 2493.7890624999995S3622.48046875 468.75 2505.859375 468.75z" />
    <glyph glyph-name="cil-at"
      unicode="&#xEA41;"
      horiz-adv-x="5000" d="M4842.05078125 2734.375A2018.0078125 2018.0078125 0 0 1 4657.65625 3500.1171875A2217.119140625 2217.119140625 0 0 1 4153.65234375 4196.025390625C3708.085937500001 4613.720703125 3120.8105468750005 4843.75 2500 4843.75A2343.75 2343.75 0 0 1 842.71484375 842.71484375A2343.75 2343.75 0 0 1 4140.283203125 825.8984375L3921.533203125 1049.1015625A2019.7656250000005 2019.7656250000005 0 0 0 2500 468.75C1379.970703125 468.75 468.75 1379.9707031250005 468.75 2500S1379.970703125 4531.25 2500 4531.25C3601.0546875 4531.25 4531.25 3672.607421875 4531.25 2656.25V2304.6875C4531.25 2024.677734375 4285.91796875 1796.875 3984.375 1796.875S3437.5 2024.677734375 3437.5 2304.6875V3437.5H3125V3176.259765625A976.4453125 976.4453125 0 1 1 3247.55859375 1882.9296875C3398.0078125 1644.3359375 3671.97265625 1484.375 3984.375 1484.375C4458.232421875 1484.375 4843.75 1852.36328125 4843.75 2304.6875V2734.375zM2460.9375 1796.875A664.0625 664.0625 0 1 0 3125 2460.9375A664.8144531249999 664.8144531249999 0 0 0 2460.9375 1796.875z" />
    <glyph glyph-name="cil-audio"
      unicode="&#xEA42;"
      horiz-adv-x="5000" d="M1081.669921875 3918.330078125L859.990234375 4140.009765625C859.0625 4139.033203125 858.10546875 4138.193359375 857.177734375 4137.265625A2328.935546875 2328.935546875 0 0 1 850.341796875 850.419921875L1072.021484375 1072.099609375A2013.1250000000005 2013.1250000000005 0 0 0 1081.669921875 3918.408203125zM4151.064453125 4137.2265625C4147.158203125 4141.1328125 4143.0859375 4144.970703125 4139.12109375 4148.88671875L3917.44140625 3927.20703125A2013.1054687499995 2013.1054687499995 0 0 0 3932.08984375 1067.83203125L4153.76953125 846.15234375A2329.0234375 2329.0234375 0 0 1 4151.025390625 4137.16796875zM1499.248046875 3500.76171875A1423.30078125 1423.30078125 0 0 1 1489.58984375 1489.58984375L1710.4589843749998 1710.458984375A1111.328125 1111.328125 0 0 0 1720.1171874999998 3279.892578125zM3279.0332031250005 3288.798828125A1111.328125 1111.328125 0 0 0 3293.6816406250005 1706.2792968749995L3514.6484375 1485.3515625A1423.30078125 1423.30078125 0 0 1 3500 3509.619140625zM2878.57421875 2888.33984375A546.03515625 546.03515625 0 1 1 3051.0156250000005 2490.302734375A544.755859375 544.755859375 0 0 1 2878.57421875 2888.33984375zM2504.1406250000005 2255.927734375A234.3750000000001 234.3750000000001 0 1 0 2738.5156250000005 2490.302734375A234.3750000000001 234.3750000000001 0 0 0 2504.140625 2255.927734375z" />
    <glyph glyph-name="cil-audio-description"
      unicode="&#xEA43;"
      horiz-adv-x="5000" d="M4609.375 4375H390.625A234.6484375 234.6484375 0 0 1 156.25 4140.625V859.375A234.6484375 234.6484375 0 0 1 390.625 625H4609.375A234.6484375 234.6484375 0 0 1 4843.75 859.375V4140.625A234.6484375 234.6484375 0 0 1 4609.375 4375zM4531.25 937.5H468.75V4062.5H4531.25zM1310.546875 2187.5H1892.5781249999995L2074.873046875 1640.625H2404.296875L1831.3671875 3359.375H1371.7578125L798.828125 1640.625H1128.232421875zM1597.0019531249998 3046.875H1606.142578125L1788.4375 2500H1414.7070312499998zM4140.625 2428.3886718749995V2571.611328125A788.6523437499999 788.6523437499999 0 0 1 3352.8613281250005 3359.375H2734.375V1640.625H3352.8613281249995A788.6523437499999 788.6523437499999 0 0 1 4140.625 2428.3886718749995zM3046.875 3046.875H3352.8613281249995A475.8007812500001 475.8007812500001 0 0 0 3828.125 2571.611328125V2428.3886718749995A475.8007812500001 475.8007812500001 0 0 0 3352.8613281250005 1953.125H3046.875z" />
    <glyph glyph-name="cil-audio-spectrum"
      unicode="&#xEA44;"
      horiz-adv-x="5000" d="M156.25 3437.5H468.75V1562.5H156.25V3437.5zM3671.875 3437.5H3984.375V1562.5H3671.875V3437.5zM1015.625 4140.625H1328.125V937.5H1015.625V4140.625zM2812.5 4062.5H3125V937.5H2812.5V4062.5zM4531.25 4062.5H4843.75V937.5H4531.25V4062.5zM1875 4843.75H2187.5V156.25H1875V4843.75z" />
    <glyph glyph-name="cil-av-timer"
      unicode="&#xEA45;"
      horiz-adv-x="5000" d="M2343.75 1250H2656.25V937.5H2343.75V1250zM937.5 2656.25H1250V2343.75H937.5V2656.25zM3750 2656.25H4062.5V2343.75H3750V2656.25zM4046.796875 4046.796875A2171.2109375 2171.2109375 0 0 1 2656.25 4681.962890625V4687.5H2343.75V3750H2656.25V4368.4375C3617.285156250001 4288.76953125 4375 3481.259765625 4375 2500C4375 1466.1230468749995 3533.8769531250005 625 2500 625S625 1466.1230468749995 625 2500A1871.1914062500005 1871.1914062500005 0 0 0 1175.859375 3827.55859375L2305 2402.94921875L2549.9023437499995 2597.05078125L1216.796875 4279.0234375L1093.69140625 4175.60546875A2187.5 2187.5 0 1 1 4046.81640625 4046.796875z" />
    <glyph glyph-name="cil-baby"
      unicode="&#xEA46;"
      horiz-adv-x="5000" d="M4154.19921875 3046.533203125A1799.8046875000002 1799.8046875000002 0 0 1 2839.9609375 4108.505859375L3101.25 4526.5625L2836.25 4692.1875L2491.474609375 4140.546875A1797.32421875 1797.32421875 0 0 1 845.80078125 3046.533203125A702.91015625 702.91015625 0 0 1 845.80078125 1640.9667968749995A1797.568359375 1797.568359375 0 0 1 4154.19921875 1640.9667968749995A702.91015625 702.91015625 0 0 1 4154.19921875 3046.533203125zM4419.35546875 2070.21484375A388.3789062500001 388.3789062500001 0 0 0 4148.26171875 1953.408203125L3945.869140624999 1949.560546875L3866.640624999999 1763.291015625A1485.0195312499998 1485.0195312499998 0 0 0 1133.3691406249995 1763.291015625L1054.1308593749995 1949.560546875L851.7382812499997 1953.408203125A390.41015625 390.41015625 0 0 0 851.7382812499997 2734.091796875L1054.1308593749995 2737.939453125L1133.3691406249995 2924.208984375A1485.0292968750002 1485.0292968750002 0 0 0 3866.640624999999 2924.208984375L3945.869140624999 2737.939453125L4148.26171875 2734.091796875A390.37109375 390.37109375 0 0 0 4419.35546875 2070.21484375zM1640.625 2734.375H2031.25V2343.75H1640.625V2734.375zM2968.75 2734.375H3359.375V2343.75H2968.75V2734.375zM2500 1250A781.25 781.25 0 0 1 3281.25 2031.25H1718.75A781.25 781.25 0 0 1 2500 1250z" />
    <glyph glyph-name="cil-baby-carriage"
      unicode="&#xEA47;"
      horiz-adv-x="5000" d="M4346.259765625 1629.55078125L4531.25 2323.2421875V2734.375C4451.796875 3652.275390625 3672.529296875 4375 2734.375 4375H2421.875V2734.375H1290.6054687499998L1116.34765625 3503.59375A314.013671875 314.013671875 0 0 1 810.91796875 3750H156.25V3437.5H810.91796875L1206.181640625 1692.6757812500005A781.25 781.25 0 1 1 2187.5 937.5Q2187.5 977.05078125 2183.59375 1015.625H3207.03125Q3203.173828125 977.0703125 3203.125 937.5A781.25 781.25 0 1 1 4346.259765625 1629.55078125zM2734.375 4062.5C3500.107421875 4062.5 4132.275390625 3479.70703125 4210.5859375 2734.375H2734.375zM1406.25 468.75A468.7500000000001 468.7500000000001 0 1 0 1875 937.5A469.287109375 469.287109375 0 0 0 1406.25 468.75zM3308.2324218750005 1328.125H2082.392578125A782.87109375 782.87109375 0 0 1 1522.666015625 1710.0390625L1361.4062499999998 2421.875H4218.75V2364.2578125L4045.8984375 1716.1328125000005C4025.56640625 1717.7246093750005 4005.087890625001 1718.7792968750005 3984.375 1718.7792968750005A781.50390625 781.50390625 0 0 1 3308.232421875 1328.125zM3984.375 468.75A468.7500000000001 468.7500000000001 0 1 0 4453.125 937.5A469.287109375 469.287109375 0 0 0 3984.375 468.75z" />
    <glyph glyph-name="cil-backspace"
      unicode="&#xEA48;"
      horiz-adv-x="5000" d="M2219.853515625 1452.021484375L3046.875 2279.033203125L3873.896484375 1452.021484375L4094.853515625 1672.978515625L3267.841796875 2500L4094.853515625 3327.021484375L3873.896484375 3547.978515625L3046.875 2720.966796875L2219.853515625 3547.978515625L1998.8964843750005 3327.021484375L2825.908203125 2500L1998.8964843750005 1672.978515625L2219.853515625 1452.021484375zM4609.375 4375H1900.8203125A235.263671875 235.263671875 0 0 1 1730.703125 4301.8359375L156.25 2640.400390625V2359.599609375L1730.703125 698.1640625A235.263671875 235.263671875 0 0 1 1900.8203125 625H4609.375A234.6484375 234.6484375 0 0 1 4843.75 859.375V4140.625A234.6484375 234.6484375 0 0 1 4609.375 4375zM4531.25 937.5H1934.4140625L468.75 2484.150390625V2515.849609375L1934.4140625 4062.5H4531.25z" />
    <glyph glyph-name="cil-badge"
      unicode="&#xEA49;"
      horiz-adv-x="5000" d="M3206.787109375 1250L3242.900390625 517.587890625L2502.060546875 1032.4218750000005L1757.0703125 517.099609375L1793.212890625 1250L1480.3320312500002 1250L1426.40625 156.25L1784.7265625 156.25L2501.650390625 652.1484375L3215.25390625 156.25L3573.59375 156.25L3519.66796875 1250L3206.787109375 1250zM4056.728515625 3487.16796875L4035.302734374999 3956.4453125L3639.6484375 4209.638671875L3386.4062499999995 4605.33203125L2917.1191406249995 4626.81640625L2500 4842.841796875L2082.880859375 4626.767578125L1613.59375 4605.283203125L1360.3515625 4209.638671875L964.697265625 3956.4453125L943.2714843749998 3487.16796875L727.1875 3070.0390625L943.2714843749998 2652.900390625L964.755859375 2183.6328125000005L1360.3515625 1930.439453125L1613.5546875 1534.7363281250005L2082.841796875 1513.3007812500005L2500 1297.2265625L2917.119140625 1513.30078125L3386.4062500000005 1534.736328125L3639.609375000001 1930.4394531249995L4035.29296875 2183.59375L4056.728515625 2652.861328125L4272.8125 3070zM3747.685546875 2735.712890625L3730.46875 2359.599609375L3413.330078125 2156.6699218749995L3210.400390625 1839.5312499999995L2834.27734375 1822.3437499999995L2500 1649.169921875L2165.68359375 1822.34375L1789.5605468749998 1839.53125L1586.6308593749998 2156.669921875L1269.53125 2359.599609375L1252.3535156250002 2735.712890625L1079.1015625 3070.0390625L1252.314453125 3404.296875L1269.53125 3780.46875L1586.630859375 3983.3984375L1789.560546875 4300.52734375L2165.68359375 4317.71484375L2500 4490.8984375L2834.31640625 4317.724609375L3210.4394531249995 4300.537109375L3413.369140625 3983.408203125L3730.46875 3780.46875L3747.646484375 3404.345703125L3920.8984375 3070.0390625z" />
    <glyph glyph-name="cil-balance-scale"
      unicode="&#xEA4A;"
      horiz-adv-x="5000" d="M1984.8339843750005 1226.42578125L2031.25 1277.490234375V1529.296875L1270.751953125 3134.765625H916.748046875L156.25 1529.296875V1265.21484375L197.59765625 1220.3417968749995A1214.326171875 1214.326171875 0 0 1 1088.45703125 829.892578125H1092.55859375A1214.287109375 1214.287109375 0 0 1 1984.8339843750005 1226.42578125zM1718.75 1400.3125A887.9296875000001 887.9296875000001 0 0 0 1091.494140625 1142.373046875H1088.271484375A887.763671875 887.763671875 0 0 0 468.75 1389.9707031250005V1458.984375L1093.75 2778.4374999999995L1718.75 1458.984375zM4083.251953125 3134.765625H3729.248046875L2968.75 1529.296875V1265.21484375L3010.09765625 1220.3417968749995A1214.326171875 1214.326171875 0 0 1 3900.957031249999 829.892578125H3905.05859375A1214.287109375 1214.287109375 0 0 1 4797.333984375 1226.4453124999995L4843.75 1277.490234375V1529.296875zM4531.25 1400.3125A887.9296875000001 887.9296875000001 0 0 0 3903.994140625 1142.373046875H3900.771484375A887.763671875 887.763671875 0 0 0 3281.25 1389.9707031250005V1458.984375L3906.25 2778.4374999999995L4531.25 1458.984375zM2656.25 3079.501953125A549.052734375 549.052734375 0 0 1 3024.013671875 3447.265625H4062.5V3759.765625H3024.013671875A546.7871093749999 546.7871093749999 0 0 1 1975.986328125 3759.765625H937.5V3447.265625H1975.986328125A549.052734375 549.052734375 0 0 1 2343.75 3079.501953125V478.515625H1328.125V166.015625H3671.875V478.515625H2656.25zM2265.625 3603.515625A234.3750000000001 234.3750000000001 0 1 0 2500 3369.140625A234.3750000000001 234.3750000000001 0 0 0 2265.625 3603.515625z" />
    <glyph glyph-name="cil-balance-scale-left"
      unicode="&#xEA4B;"
      horiz-adv-x="5000" d="M916.748046875 2509.765625L156.25 904.296875V640.21484375L197.59765625 595.341796875A1214.326171875 1214.326171875 0 0 1 1088.45703125 204.892578125H1092.55859375A1214.287109375 1214.287109375 0 0 1 1984.8339843750005 601.4453125L2031.25 652.490234375V904.296875L1270.751953125 2509.765625zM1718.75 775.3125A887.9296875000001 887.9296875000001 0 0 0 1091.494140625 517.373046875H1088.271484375A887.763671875 887.763671875 0 0 0 468.75 764.970703125V833.984375L1093.75 2153.4374999999995L1718.75 833.984375zM4083.251953125 3681.640625H3729.248046875L2968.75 2076.171875V1812.08984375L3010.09765625 1767.2167968749995A1214.326171875 1214.326171875 0 0 1 3900.957031249999 1376.767578125H3905.05859375A1214.287109375 1214.287109375 0 0 1 4797.333984375 1773.3203124999995L4843.75 1824.365234375V2076.171875zM4531.25 1947.1875A887.9296875000001 887.9296875000001 0 0 0 3903.994140625 1689.248046875H3900.771484375A887.763671875 887.763671875 0 0 0 3281.25 1936.8457031250005V2005.859375L3906.25 3325.3125L4531.25 2005.859375zM2656.25 3079.501953125A546.4160156250001 546.4160156250001 0 0 1 3043.720703125 3661.865234375L4062.5 4102.59765625V4443.0859375L2922.75390625 3950.009765625A546.7773437500001 546.7773437500001 0 0 1 1955.9570312500005 3548.076171875L937.5 3132.8125V2795.341796875L2075.4296875 3259.306640625A548.3984374999999 548.3984374999999 0 0 1 2343.75 3079.501953125V166.015625H3671.875V478.515625H2656.25zM2265.625 3603.515625A234.3750000000001 234.3750000000001 0 1 0 2500 3369.140625A234.3750000000001 234.3750000000001 0 0 0 2265.625 3603.515625z" />
    <glyph glyph-name="cil-balance-scale-right"
      unicode="&#xEA4C;"
      horiz-adv-x="5000" d="M2924.5703125 3259.326171875L4062.5 2795.361328125V3132.8125L3044.072265625 3548.076171875A546.6601562500001 546.6601562500001 0 0 1 2077.275390625 3950.009765625L937.5 4443.0859375V4102.59765625L1956.2792968749995 3661.865234375A546.4160156250001 546.4160156250001 0 0 1 2343.75 3079.501953125V478.515625H1328.125V166.015625H2656.25V3079.501953125A548.3984374999999 548.3984374999999 0 0 1 2924.5703125 3259.326171875zM2500 3369.140625A234.3750000000001 234.3750000000001 0 1 0 2734.375 3603.515625A234.3750000000001 234.3750000000001 0 0 0 2500 3369.140625zM4083.251953125 2509.765625H3729.248046875L2968.75 904.296875V652.509765625L3015.185546875 601.42578125A1214.2675781249998 1214.2675781249998 0 0 1 3907.44140625 204.892578125H3911.542968750001A1214.384765625 1214.384765625 0 0 1 4802.40234375 595.341796875L4843.75 640.1953125V904.296875zM4531.25 764.970703125A887.6953125 887.6953125 0 0 0 3911.728515625 517.373046875H3908.505859375A888.0273437499999 888.0273437499999 0 0 0 3281.25 775.302734375V833.984375L3906.25 2153.4374999999995L4531.25 833.984375zM1989.90234375 1767.197265625L2031.25 1812.0703125V2076.171875L1270.751953125 3681.640625H916.748046875L156.25 2076.171875V1824.384765625L202.685546875 1773.30078125A1214.2675781249998 1214.2675781249998 0 0 1 1094.94140625 1376.767578125H1099.04296875A1214.384765625 1214.384765625 0 0 1 1989.90234375 1767.197265625zM1718.75 1936.8457031250005A887.6953125 887.6953125 0 0 0 1099.228515625 1689.2480468750005H1096.005859375A888.0273437499999 888.0273437499999 0 0 0 468.75 1947.177734375V2005.859375L1093.75 3325.3125L1718.75 2005.859375z" />
    <glyph glyph-name="cil-ban"
      unicode="&#xEA4D;"
      horiz-adv-x="5000" d="M4157.28515625 4157.28515625A2343.75 2343.75 0 0 1 842.71484375 842.724609375A2343.75 2343.75 0 0 1 4157.28515625 4157.28515625zM2500 4531.25A2022.4609375000005 2022.4609375000005 0 0 0 3823.515625 4039.599609375L960.400390625 1176.484375A2022.4609375000005 2022.4609375000005 0 0 0 468.75 2500C468.75 3620.029296875 1379.970703125 4531.25 2500 4531.25zM2500 468.75A2022.3046875000005 2022.3046875000005 0 0 0 1181.77734375 955.927734375L4044.082031250001 3818.232421875A2022.3046875000005 2022.3046875000005 0 0 0 4531.25 2500C4531.25 1379.9707031250005 3620.029296874999 468.75 2500 468.75z" />
    <glyph glyph-name="cil-bank"
      unicode="&#xEA4E;"
      horiz-adv-x="5000" d="M2419.521484375 4859.78515625L156.25 3770.05859375V3203.125H4843.75V3773.06640625zM4531.25 3515.625H468.75V3573.69140625L2424.228515625 4515.21484375L4531.25 3570.68359375zM468.75 1015.625H4531.25V703.125H468.75V1015.625zM156.25 468.75H4843.75V156.25H156.25V468.75zM546.875 2890.625H859.375V1328.125H546.875V2890.625zM4140.625 2890.625H4453.125V1328.125H4140.625V2890.625zM3203.125 2890.625H3515.625V1328.125H3203.125V2890.625zM1484.375 2890.625H1796.875V1328.125H1484.375V2890.625zM2343.75 2890.625H2656.25V1328.125H2343.75V2890.625z" />
    <glyph glyph-name="cil-bar-chart"
      unicode="&#xEA4F;"
      horiz-adv-x="5000" d="M1328.125 937.5H2187.5A234.6484375 234.6484375 0 0 1 2421.875 1171.875V3203.125A234.6484375 234.6484375 0 0 1 2187.5 3437.5H1328.125A234.6484375 234.6484375 0 0 1 1093.75 3203.125V1171.875A234.6484375 234.6484375 0 0 1 1328.125 937.5zM1406.25 3125H2109.375V1250H1406.25zM4140.625 4843.75H3281.25A234.6484375 234.6484375 0 0 1 3046.875 4609.375V1171.875A234.6484375 234.6484375 0 0 1 3281.25 937.5H4140.625A234.6484375 234.6484375 0 0 1 4375 1171.875V4609.375A234.6484375 234.6484375 0 0 1 4140.625 4843.75zM4062.5 1250H3359.375V4531.25H4062.5zM468.75 4843.75L156.25 4843.75L156.25 156.25L4843.75 156.25L4843.75 468.75L468.75 468.75L468.75 4843.75z" />
    <glyph glyph-name="cil-barcode"
      unicode="&#xEA50;"
      horiz-adv-x="5000" d="M156.25 468.75H4843.75V4453.125H156.25zM468.75 4140.625H4531.25V781.25H468.75zM781.25 3750H1093.75V1250H781.25V3750zM1406.25 3750H1718.75V1875H1406.25V3750zM2031.25 3750H2343.75V1250H2031.25V3750zM2656.25 3750H2968.75V1875H2656.25V3750zM3281.25 3750H3593.75V1875H3281.25V3750zM3906.25 3750H4218.75V1250H3906.25V3750zM1406.25 1562.5H1718.75V1250H1406.25V1562.5zM2656.25 1562.5H2968.75V1250H2656.25V1562.5zM3281.25 1562.5H3593.75V1250H3281.25V1562.5z" />
    <glyph glyph-name="cil-baseball"
      unicode="&#xEA51;"
      horiz-adv-x="5000" d="M1054.6875 3046.875A898.4375000000001 898.4375000000001 0 1 1 156.25 3945.3125A899.4140625 899.4140625 0 0 1 1054.6875 3046.875zM1054.6875 4531.25A585.9375 585.9375 0 1 0 468.75 3945.3125A586.6015625 586.6015625 0 0 0 1054.6875 4531.25zM4657.587890625 4626.3671875H4657.587890625A742.1875000000001 742.1875000000001 0 0 1 3607.978515625 4626.3671875L3554.5117187499995 4572.900390625C3348.9160156249995 4367.3046875 3148.7207031249995 4151.103515625 2959.4921874999995 3930.322265625L2956.38671875 3926.708984375L1600.634765625 2134.111328125L767.0703125 1300.537109375A373.662109375 373.662109375 0 0 1 316.66015625 712.36328125L712.36328125 316.669921875A373.75 373.75 0 0 1 1300.625 767.158203125L2133.046875 1599.5800781250005L3889.882812499999 2876.533203125L3898.095703124999 2882.919921875C4160.44921875 3101.669921875 4415.9765625 3335.166015625 4657.578125 3576.7578125A743.0468749999999 743.0468749999999 0 0 1 4657.587890625 4626.3671875zM4436.6015625 3797.724609375C4202.87109375 3563.984375 3955.712890625 3338.0859375 3701.933593749999 3126.23046875L1929.453125 1837.890625L867.71484375 776.181640625L1019.78515625 624.091796875A61.1328125 61.1328125 0 1 0 933.33984375 537.63671875L537.63671875 933.330078125A61.1328125 61.1328125 0 0 0 624.091796875 1019.7949218749995L776.171875 867.705078125L1836.9140625 1928.388671875L3199.9023437499995 3730.546875C3383.0273437499995 3944.052734375 3576.6699218749995 4153.076171875 3775.517578124999 4351.93359375L3828.984374999999 4405.390625A429.6875 429.6875 0 1 0 4436.650390625 3797.724609375z" />
    <glyph glyph-name="cil-basket"
      unicode="&#xEA52;"
      horiz-adv-x="5000" d="M1171.875 2031.25H1484.375V781.25H1171.875V2031.25zM1953.125 2031.25H2265.625V781.25H1953.125V2031.25zM2734.375 2031.25H3046.875V781.25H2734.375V2031.25zM3515.625 2031.25H3828.125V781.25H3515.625V2031.25zM4625.791015625 3359.375L3848.26171875 4843.75H3495.48828125L4273.017578125 3359.375H726.982421875L1504.5117187500002 4843.75H1151.73828125L374.208984375 3359.375H156.25V2270.8203125L574.765625 156.25H4424.970703125L4843.75 2250.15625V3359.375zM4531.25 2281.09375L4168.779296875 468.75H831.484375L468.75 2301.4453125V2343.75H4531.25zM4531.25 2656.25H468.75V3046.875H4531.25z" />
    <glyph glyph-name="cil-basket-arrow-down"
      unicode="&#xEA53;"
      horiz-adv-x="5000" d="M3235.478515625 1452.01171875L3014.521484375 1672.98828125L2656.25 1314.716796875L2656.25 2031.25L2343.75 2031.25L2343.75 1314.716796875L1985.4785156249995 1672.98828125L1764.5214843750002 1452.01171875L2500 716.533203125L3235.478515625 1452.01171875zM4625.791015625 3359.375L3848.26171875 4843.75H3495.48828125L4273.017578125 3359.375H726.982421875L1504.5117187500002 4843.75H1151.73828125L374.208984375 3359.375H156.25V2270.8203125L574.765625 156.25H4424.970703125L4843.75 2250.15625V3359.375zM4531.25 2281.09375L4168.779296875 468.75H831.484375L468.75 2301.4453125V2343.75H4531.25zM4531.25 2656.25H468.75V3046.875H4531.25z" />
    <glyph glyph-name="cil-basket-loaded"
      unicode="&#xEA54;"
      horiz-adv-x="5000" d="M1171.875 2031.25H1484.375V781.25H1171.875V2031.25zM1953.125 2031.25H2265.625V781.25H1953.125V2031.25zM2734.375 2031.25H3046.875V781.25H2734.375V2031.25zM3515.625 2031.25H3828.125V781.25H3515.625V2031.25zM4625.791015625 3359.375L3848.26171875 4843.75H3495.48828125L4273.017578125 3359.375H726.982421875L1504.5117187500002 4843.75H1151.73828125L374.208984375 3359.375H156.25V2270.8203125L574.765625 156.25H4424.970703125L4843.75 2250.15625V3359.375zM4531.25 2281.09375L4168.779296875 468.75H831.484375L468.75 2301.4453125V2343.75H4531.25zM4531.25 2656.25H468.75V3046.875H4531.25zM1672.9785156249998 3671.875L1941.1328125 3962.373046875A796.8749999999999 796.8749999999999 0 0 0 3135.01953125 3936.611328125L3359.0332031249995 3671.875H3768.388671875L3373.57421875 4138.466796875A1109.375 1109.375 0 0 1 1711.4648437500002 4174.3359375L1247.6953125 3671.875z" />
    <glyph glyph-name="cil-basket-plus"
      unicode="&#xEA55;"
      horiz-adv-x="5000" d="M4625.791015625 3359.375L3848.26171875 4843.75H3495.48828125L4273.017578125 3359.375H726.982421875L1504.5117187500002 4843.75H1151.73828125L374.208984375 3359.375H156.25V2270.8203125L574.765625 156.25H4424.970703125L4843.75 2250.15625V3359.375zM4531.25 2281.09375L4168.779296875 468.75H831.484375L468.75 2301.4453125V2343.75H4531.25zM4531.25 2656.25H468.75V3046.875H4531.25zM2265.625 703.125L2578.125 703.125L2578.125 1250L3125 1250L3125 1562.5L2578.125 1562.5L2578.125 2109.375L2265.625 2109.375L2265.625 1562.5L1718.75 1562.5L1718.75 1250L2265.625 1250L2265.625 703.125z" />
    <glyph glyph-name="cil-basketball"
      unicode="&#xEA56;"
      horiz-adv-x="5000" d="M2500 4843.75A2343.75 2343.75 0 0 1 842.71484375 842.71484375A2343.75 2343.75 0 0 1 4157.28515625 4157.28515625A2328.4375 2328.4375 0 0 1 2500 4843.75zM1052.353515625 3923.33984375Q1093.466796875 3866.455078125 1131.89453125 3801.6015625C1314.150390625 3493.076171875 1423.1347656249998 3091.005859375 1444.248046875 2656.25H474.697265625A2025.2539062499995 2025.2539062499995 0 0 0 1052.353515625 3923.33984375zM1052.353515625 1076.66015625A2025.2539062499995 2025.2539062499995 0 0 0 474.697265625 2343.75H1444.248046875C1423.1347656249998 1908.994140625 1314.150390625 1506.9238281249995 1131.89453125 1198.3984375Q1093.564453125 1133.49609375 1052.353515625 1076.66015625zM2343.75 474.697265625A2020.1757812500005 2020.1757812500005 0 0 0 1288.583984375 870.517578125A1861.4453125 1861.4453125 0 0 1 1400.95703125 1039.4628906249995C1610.751953125 1394.6191406249995 1735.263671875 1852.939453125 1757.119140625 2343.75H2343.75zM2343.75 2656.25H1757.119140625C1735.263671875 3147.041015625 1610.751953125 3605.380859375 1400.95703125 3960.537109375A1861.4453125 1861.4453125 0 0 1 1288.583984375 4129.482421875A2020.1757812500005 2020.1757812500005 0 0 0 2343.75 4525.302734375zM2656.25 4525.302734375A2020.1757812500005 2020.1757812500005 0 0 0 3711.416015625 4129.482421875A1861.4453125 1861.4453125 0 0 1 3599.0429687499995 3960.537109375C3389.2480468749995 3605.380859375 3264.7363281249995 3147.060546875 3242.8808593749995 2656.25H2656.25zM2656.25 474.697265625V2343.75H3242.8808593750005C3264.7363281250005 1852.958984375 3389.2480468750005 1394.6191406249995 3599.0429687500005 1039.4628906250005A1861.4453125 1861.4453125 0 0 1 3711.416015625001 870.517578125A2020.1757812500005 2020.1757812500005 0 0 0 2656.25 474.697265625zM3947.646484374999 1076.66015625Q3906.533203125 1133.53515625 3868.10546875 1198.3984375C3685.849609375 1506.9238281250005 3576.865234375 1908.994140625 3555.751953125 2343.75H4525.302734375A2025.2539062499995 2025.2539062499995 0 0 0 3947.646484374999 1076.66015625zM3555.751953125 2656.25C3576.8652343749995 3091.005859375 3685.849609375 3493.076171875 3868.10546875 3801.6015625Q3906.435546875 3866.50390625 3947.646484374999 3923.33984375A2025.2539062499995 2025.2539062499995 0 0 0 4525.302734375 2656.25z" />
    <glyph glyph-name="cil-bath"
      unicode="&#xEA57;"
      horiz-adv-x="5000" d="M4531.25 2265.625H781.25V4023.4375A500.56640625 500.56640625 0 0 0 928.837890625 4379.736328125L932.744140625 4383.642578125A504.7949218750001 504.7949218750001 0 0 0 1505.009765625 4482.880859375A772.4609375 772.4609375 0 0 1 1620.029296875 3539.2578125L1726.9726562499998 3432.314453125L1530.1269531249998 3235.4589843750005L1751.0839843749998 3014.501953125L1947.9296875 3211.3476562500005H1947.9296875L3038.642578125 4302.041015625H3038.642578125L3235.4882812499995 4498.88671875L3014.521484375 4719.853515625L2817.666015625 4523.0078125L2710.7226562499995 4629.951171875A772.32421875 772.32421875 0 0 1 1725.0878906249998 4717.607421875A816.5039062499999 816.5039062499999 0 0 1 711.787109375 4604.638671875L707.880859375 4600.732421875A811.07421875 811.07421875 0 0 1 468.75 4023.4375V2265.625H156.25V1953.125H468.75V1653.3203125A233.88671875 233.88671875 0 0 1 480.78125 1579.208984375L771.484375 707.138671875A234.072265625 234.072265625 0 0 1 993.80859375 546.875H1119.78515625L1005.859375 156.25H1331.376953125L1445.3125 546.875H3477.5390625L3594.7265625 156.25H3920.8984375L3803.7109375 546.875H4006.15234375A234.072265625 234.072265625 0 0 1 4228.515625 707.138671875L4519.19921875 1579.208984375A234.19921875 234.19921875 0 0 1 4531.25 1653.3203125V1953.125H4843.75V2265.625zM1841.015625 4408.984375A459.2285156249999 459.2285156249999 0 0 0 2489.755859375 4408.984375L2596.6796875 4302.041015625L1947.958984375 3653.3203125L1841.015625 3760.244140625A459.2480468749999 459.2480468749999 0 0 0 1841.015625 4408.984375zM4218.75 1666.015625L3949.8828125 859.375H1050.1171875L781.25 1666.015625V1953.125H4218.75z" />
    <glyph glyph-name="cil-bathroom"
      unicode="&#xEA58;"
      horiz-adv-x="5000" d="M4531.25 2265.625H781.25V4023.4375A500.56640625 500.56640625 0 0 0 928.837890625 4379.736328125L932.744140625 4383.642578125A504.7949218750001 504.7949218750001 0 0 0 1505.009765625 4482.880859375A772.4609375 772.4609375 0 0 1 1620.029296875 3539.2578125L1726.9726562499998 3432.314453125L1530.1269531249998 3235.4589843750005L1751.0839843749998 3014.501953125L1947.9296875 3211.3476562500005H1947.9296875L3038.642578125 4302.041015625H3038.642578125L3235.4882812499995 4498.88671875L3014.521484375 4719.853515625L2817.666015625 4523.0078125L2710.7226562499995 4629.951171875A772.32421875 772.32421875 0 0 1 1725.0878906249998 4717.607421875A816.5039062499999 816.5039062499999 0 0 1 711.787109375 4604.638671875L707.880859375 4600.732421875A811.07421875 811.07421875 0 0 1 468.75 4023.4375V2265.625H156.25V1953.125H468.75V1653.3203125A233.88671875 233.88671875 0 0 1 480.78125 1579.208984375L771.484375 707.138671875A234.072265625 234.072265625 0 0 1 993.80859375 546.875H1119.78515625L1005.859375 156.25H1331.376953125L1445.3125 546.875H3477.5390625L3594.7265625 156.25H3920.8984375L3803.7109375 546.875H4006.15234375A234.072265625 234.072265625 0 0 1 4228.515625 707.138671875L4519.19921875 1579.208984375A234.19921875 234.19921875 0 0 1 4531.25 1653.3203125V1953.125H4843.75V2265.625zM1841.015625 4408.984375A459.2285156249999 459.2285156249999 0 0 0 2489.755859375 4408.984375L2596.6796875 4302.041015625L1947.958984375 3653.3203125L1841.015625 3760.244140625A459.2480468749999 459.2480468749999 0 0 0 1841.015625 4408.984375zM4218.75 1666.015625L3949.8828125 859.375H1050.1171875L781.25 1666.015625V1953.125H4218.75z" />
    <glyph glyph-name="cil-battery-0"
      unicode="&#xEA59;"
      horiz-adv-x="5000" d="M390.48828125 859.375H3984.375A232.666015625 232.666015625 0 0 1 4218.75 1089.7460937499995V1640.625H4843.75V3281.25H4218.75V3832.12890625A232.666015625 232.666015625 0 0 1 3984.375 4062.5H390.48828125A232.666015625 232.666015625 0 0 1 156.11328125 3832.12890625V1089.7460937499995A232.666015625 232.666015625 0 0 1 390.48828125 859.375zM468.61328125 3750H3906.25V2968.75H4531.25V1953.125H3906.25V1171.875H468.61328125z" />
    <glyph glyph-name="cil-battery-1"
      unicode="&#xEA5A;"
      horiz-adv-x="5000" d="M781.25 3437.5H1093.75V1484.375H781.25V3437.5zM4218.75 3281.25V3832.12890625A232.666015625 232.666015625 0 0 1 3984.375 4062.5H390.48828125A232.666015625 232.666015625 0 0 1 156.11328125 3832.12890625V1089.7460937499995A232.666015625 232.666015625 0 0 1 390.48828125 859.375H3984.375A232.666015625 232.666015625 0 0 1 4218.75 1089.7460937499995V1640.625H4843.75V3281.25zM4531.25 1953.125H3906.25V1171.875H468.61328125V3750H3906.25V2968.75H4531.25z" />
    <glyph glyph-name="cil-battery-2"
      unicode="&#xEA5B;"
      horiz-adv-x="5000" d="M781.25 3437.5H1093.75V1484.375H781.25V3437.5zM1406.25 3437.5H1718.75V1484.375H1406.25V3437.5zM4218.75 3281.25V3832.12890625A232.666015625 232.666015625 0 0 1 3984.375 4062.5H390.48828125A232.666015625 232.666015625 0 0 1 156.11328125 3832.12890625V1089.7460937499995A232.666015625 232.666015625 0 0 1 390.48828125 859.375H3984.375A232.666015625 232.666015625 0 0 1 4218.75 1089.7460937499995V1640.625H4843.75V3281.25zM4531.25 1953.125H3906.25V1171.875H468.61328125V3750H3906.25V2968.75H4531.25z" />
    <glyph glyph-name="cil-battery-3"
      unicode="&#xEA5C;"
      horiz-adv-x="5000" d="M781.25 3437.5H1093.75V1484.375H781.25V3437.5zM1406.25 3437.5H1718.75V1484.375H1406.25V3437.5zM2031.25 3437.5H2343.75V1484.375H2031.25V3437.5zM4218.75 3281.25V3832.12890625A232.666015625 232.666015625 0 0 1 3984.375 4062.5H390.48828125A232.666015625 232.666015625 0 0 1 156.11328125 3832.12890625V1089.7460937499995A232.666015625 232.666015625 0 0 1 390.48828125 859.375H3984.375A232.666015625 232.666015625 0 0 1 4218.75 1089.7460937499995V1640.625H4843.75V3281.25zM4531.25 1953.125H3906.25V1171.875H468.61328125V3750H3906.25V2968.75H4531.25z" />
    <glyph glyph-name="cil-battery-4"
      unicode="&#xEA5D;"
      horiz-adv-x="5000" d="M781.25 3437.5H1093.75V1484.375H781.25V3437.5zM1406.25 3437.5H1718.75V1484.375H1406.25V3437.5zM2031.25 3437.5H2343.75V1484.375H2031.25V3437.5zM2656.25 3437.5H2968.75V1484.375H2656.25V3437.5zM4218.75 3281.25V3832.12890625A232.666015625 232.666015625 0 0 1 3984.375 4062.5H390.48828125A232.666015625 232.666015625 0 0 1 156.11328125 3832.12890625V1089.7460937499995A232.666015625 232.666015625 0 0 1 390.48828125 859.375H3984.375A232.666015625 232.666015625 0 0 1 4218.75 1089.7460937499995V1640.625H4843.75V3281.25zM4531.25 1953.125H3906.25V1171.875H468.61328125V3750H3906.25V2968.75H4531.25z" />
    <glyph glyph-name="cil-battery-5"
      unicode="&#xEA5E;"
      horiz-adv-x="5000" d="M781.25 3437.5H1093.75V1484.375H781.25V3437.5zM1406.25 3437.5H1718.75V1484.375H1406.25V3437.5zM2031.25 3437.5H2343.75V1484.375H2031.25V3437.5zM2656.25 3437.5H2968.75V1484.375H2656.25V3437.5zM3281.25 3437.5H3593.75V1484.375H3281.25V3437.5zM4218.75 3281.25V3832.12890625A232.666015625 232.666015625 0 0 1 3984.375 4062.5H390.48828125A232.666015625 232.666015625 0 0 1 156.11328125 3832.12890625V1089.7460937499995A232.666015625 232.666015625 0 0 1 390.48828125 859.375H3984.375A232.666015625 232.666015625 0 0 1 4218.75 1089.7460937499995V1640.625H4843.75V3281.25zM4531.25 1953.125H3906.25V1171.875H468.61328125V3750H3906.25V2968.75H4531.25z" />
    <glyph glyph-name="cil-battery-alert"
      unicode="&#xEA5F;"
      horiz-adv-x="5000" d="M4218.75 3281.25V3832.12890625A232.666015625 232.666015625 0 0 1 3984.375 4062.5H2343.75V3750H3906.25V2968.75H4531.25V1953.125H3906.25V1171.875H468.61328125V3750H1093.75V4062.5H390.48828125A232.666015625 232.666015625 0 0 1 156.11328125 3832.12890625V1089.7460937499995A232.666015625 232.666015625 0 0 1 390.48828125 859.375H3984.375A232.666015625 232.666015625 0 0 1 4218.75 1089.7460937499995V1640.625H4843.75V3281.25zM1875 4375L1875 4453.125L1562.5 4453.125L1562.5 4375L1562.5 2500L1875 2500L1875 4375zM1875 2031.25L1875 2187.5L1562.5 2187.5L1562.5 2031.25L1562.5 1875L1875 1875L1875 2031.25z" />
    <glyph glyph-name="cil-battery-alt-0"
      unicode="&#xEA60;"
      horiz-adv-x="5000" d="M4531.38671875 3281.25H4843.88671875V1796.875H4531.38671875V3281.25zM3974.74609375 4062.5H390.625A234.6484375 234.6484375 0 0 1 156.25 3828.125V1250A234.6484375 234.6484375 0 0 1 390.625 1015.625H3974.74609375A234.6484375 234.6484375 0 0 1 4209.12109375 1250V3828.125A234.6484375 234.6484375 0 0 1 3974.74609375 4062.5zM3896.62109375 1328.125H468.75V3750H3896.62109375z" />
    <glyph glyph-name="cil-battery-alt-1"
      unicode="&#xEA61;"
      horiz-adv-x="5000" d="M4531.38671875 3281.25H4843.88671875V1796.875H4531.38671875V3281.25zM3974.74609375 4062.5H390.625A234.6484375 234.6484375 0 0 1 156.25 3828.125V1250A234.6484375 234.6484375 0 0 1 390.625 1015.625H3974.74609375A234.638671875 234.638671875 0 0 1 4209.12109375 1250V3828.125A234.638671875 234.638671875 0 0 1 3974.74609375 4062.5zM3896.62109375 1328.125H468.75V3750H3896.62109375zM1074.35546875 3437.5H1386.85546875V1640.625H1074.35546875V3437.5z" />
    <glyph glyph-name="cil-battery-alt-2"
      unicode="&#xEA62;"
      horiz-adv-x="5000" d="M4531.38671875 3281.25H4843.88671875V1796.875H4531.38671875V3281.25zM3974.74609375 4062.5H390.625A234.6484375 234.6484375 0 0 1 156.25 3828.125V1250A234.6484375 234.6484375 0 0 1 390.625 1015.625H3974.74609375A234.638671875 234.638671875 0 0 1 4209.12109375 1250V3828.125A234.638671875 234.638671875 0 0 1 3974.74609375 4062.5zM3896.62109375 1328.125H468.75V3750H3896.62109375zM2021.62109375 3437.5H2334.12109375V1640.625H2021.62109375V3437.5zM1074.35546875 3437.5H1386.85546875V1640.625H1074.35546875V3437.5z" />
    <glyph glyph-name="cil-battery-alt-3"
      unicode="&#xEA63;"
      horiz-adv-x="5000" d="M4531.38671875 3281.25H4843.88671875V1796.875H4531.38671875V3281.25zM3974.74609375 4062.5H390.625A234.6484375 234.6484375 0 0 1 156.25 3828.125V1250A234.6484375 234.6484375 0 0 1 390.625 1015.625H3974.74609375A234.638671875 234.638671875 0 0 1 4209.12109375 1250V3828.125A234.638671875 234.638671875 0 0 1 3974.74609375 4062.5zM3896.62109375 1328.125H468.75V3750H3896.62109375zM2021.62109375 3437.5H2334.12109375V1640.625H2021.62109375V3437.5zM1074.35546875 3437.5H1386.85546875V1640.625H1074.35546875V3437.5zM2926.572265625 3437.5H3239.072265625V1640.625H2926.572265625V3437.5z" />
    <glyph glyph-name="cil-battery-alt-empty"
      unicode="&#xEA64;"
      horiz-adv-x="5000" d="M4531.38671875 3281.25H4843.88671875V1796.875H4531.38671875V3281.25zM3974.74609375 4062.5H390.625A234.6484375 234.6484375 0 0 1 156.25 3828.125V1250A234.6484375 234.6484375 0 0 1 390.625 1015.625H3974.74609375A234.6484375 234.6484375 0 0 1 4209.12109375 1250V3828.125A234.6484375 234.6484375 0 0 1 3974.74609375 4062.5zM3896.62109375 1328.125H468.75V3750H3896.62109375z" />
    <glyph glyph-name="cil-battery-alt-full"
      unicode="&#xEA65;"
      horiz-adv-x="5000" d="M4531.38671875 3281.25H4843.88671875V1796.875H4531.38671875V3281.25zM3974.74609375 4062.5H390.625A234.6484375 234.6484375 0 0 1 156.25 3828.125V1250A234.6484375 234.6484375 0 0 1 390.625 1015.625H3974.74609375A234.638671875 234.638671875 0 0 1 4209.12109375 1250V3828.125A234.638671875 234.638671875 0 0 1 3974.74609375 4062.5zM3896.62109375 1328.125H468.75V3750H3896.62109375zM2021.62109375 3437.5H2334.12109375V1640.625H2021.62109375V3437.5zM1074.35546875 3437.5H1386.85546875V1640.625H1074.35546875V3437.5zM2926.572265625 3437.5H3239.072265625V1640.625H2926.572265625V3437.5z" />
    <glyph glyph-name="cil-battery-alt-slash"
      unicode="&#xEA66;"
      horiz-adv-x="5000" d="M4531.38671875 3281.25H4843.88671875V1796.875H4531.38671875V3281.25zM3896.62109375 3750V1766.2890625L4209.12109375 1453.7890625V3828.125A234.638671875 234.638671875 0 0 1 3974.74609375 4062.5H1600.41015625L1912.91015625 3750zM1470.966796875 3750L1158.466796875 4062.5L377.2167968750001 4843.75H156.25V4622.783203125L716.533203125 4062.5H390.625A234.6484375 234.6484375 0 0 1 156.25 3828.125V1250A234.6484375 234.6484375 0 0 1 390.625 1015.625H3763.408203125L4622.783203125 156.25H4843.75V377.216796875L2603.154296875 2617.802734375zM468.75 1328.125V3750H1029.033203125L3450.908203125 1328.125z" />
    <glyph glyph-name="cil-battery-charge"
      unicode="&#xEA67;"
      horiz-adv-x="5000" d="M2403.6328125 3515.625L2071.81640625 3515.625L1653.28125 2343.75L2283.212890625 2343.75L1970.7128906249995 1406.25L2300.1171875 1406.25L2716.787109375 2656.25L2096.71875 2656.25L2403.6328125 3515.625zM4218.75 3281.25V3832.12890625A232.666015625 232.666015625 0 0 1 3984.375 4062.5H390.48828125A232.666015625 232.666015625 0 0 1 156.11328125 3832.12890625V1089.7460937499995A232.666015625 232.666015625 0 0 1 390.48828125 859.375H3984.375A232.666015625 232.666015625 0 0 1 4218.75 1089.7460937499995V1640.625H4843.75V3281.25zM4531.25 1953.125H3906.25V1171.875H468.61328125V3750H3906.25V2968.75H4531.25z" />
    <glyph glyph-name="cil-battery-empty"
      unicode="&#xEA68;"
      horiz-adv-x="5000" d="M390.48828125 859.375H3984.375A232.666015625 232.666015625 0 0 1 4218.75 1089.7460937499995V1640.625H4843.75V3281.25H4218.75V3832.12890625A232.666015625 232.666015625 0 0 1 3984.375 4062.5H390.48828125A232.666015625 232.666015625 0 0 1 156.11328125 3832.12890625V1089.7460937499995A232.666015625 232.666015625 0 0 1 390.48828125 859.375zM468.61328125 3750H3906.25V2968.75H4531.25V1953.125H3906.25V1171.875H468.61328125z" />
    <glyph glyph-name="cil-battery-full"
      unicode="&#xEA69;"
      horiz-adv-x="5000" d="M781.25 3437.5H1093.75V1484.375H781.25V3437.5zM1406.25 3437.5H1718.75V1484.375H1406.25V3437.5zM2031.25 3437.5H2343.75V1484.375H2031.25V3437.5zM2656.25 3437.5H2968.75V1484.375H2656.25V3437.5zM3281.25 3437.5H3593.75V1484.375H3281.25V3437.5zM4218.75 3281.25V3832.12890625A232.666015625 232.666015625 0 0 1 3984.375 4062.5H390.48828125A232.666015625 232.666015625 0 0 1 156.11328125 3832.12890625V1089.7460937499995A232.666015625 232.666015625 0 0 1 390.48828125 859.375H3984.375A232.666015625 232.666015625 0 0 1 4218.75 1089.7460937499995V1640.625H4843.75V3281.25zM4531.25 1953.125H3906.25V1171.875H468.61328125V3750H3906.25V2968.75H4531.25z" />
    </font>
</defs>
</svg>
